Anonymous, доброй ночи, присоединяйтесь к нам в Telegram!, здесь всегда актуальный адрес сайта, оперативная поддержка и многое другое!

>

5.5

iTunes

7.4

iTunes

7.9

iTunes

1

7.7

1 сезон

6.8

iTunes

7.3

1 сезон

13

6.7

1 сезон

8.3

RePack

30

ULTIMATE

pack

9.9

Лицензия

ВАЖНО

ИГРА 18+

pack

7.3

RePack

MK11

7.7

RePack

jed

7.8

RePack

fifa19

8.5

RePack

RDR2

RePack

NEED FOR SPEED™ PAYBACK

4 сезон

9 сезон

Бесстыжие 9 сезон

Все сериалы

все сериалы на PB.wtf

RePack

FAR CRY 5

Anonymous, доброй ночи, мы катастрофически не успеваем собрать деньги на оплату серверов, помогите нам пожалуйста 5,10,15р., для нас важна любая помощь . В качестве благодарности мы отключим Вам всю рекламу на сайте (укажите свой ник в строку Ваше имя)!

×
  
Magnet ссылка

Свадьбы не будет! / Es ist zu deinem Besten / It's for Your Own Good (Марк Ротемунд) [2020, Мелодрама, комедия, HDRip-AVC] DUB [iTunes] от MediaBit pb.wtf

Свадьбы не будет! через торрент pb.wtf

Раздают: 1 [ 0 KB/s ]
Размер: 1.68 GB | Добавлен: 15 д. назад | Торрент скачан:45 раз
Смотреть онлайн Свадьбы не будет! | Скачать    Ребята, помогите собрать деньги на оплату серверов!!!

10-10-2021 08:48 Свадьбы не будет! Скачать торрент  


Свадьбы не будет! / Es ist zu deinem Besten / It's for Your Own Good
Информация о фильме:
Название: Свадьбы не будет!
Оригинальное название: Es ist zu deinem Besten / It's for Your Own Good
Год выхода: 2020
Жанр: Мелодрама, комедия
Режиссер: Марк Ротемунд
В ролях: Наталия Авелон, Матиас Бундшух, Инка Фридрих, Лиза-Мари Вернер, Хайнер Лаутербах, Юнис Марлон, Якоб Маченц, Андреас Питчманн, Янина Узе

Описание: Три отца взрослых дочерей объединяются, чтобы помешать своим девочкам совершить самую большую ошибку в их жизни — выйти замуж не за того! Одна встречается с революционером, вторая — с фотографом в жанре ню, а третья вообще связалась с наркодилером! Взволнованные родители готовы на все, чтобы образумить детей, а если те не захотят к ним прислушаться, то в ход пойдут любые уловки! «Свадьбы не будет!» — немецкая комедия об отцах, которые пытаются разрушить отношения своих дочерей с неподходящими мужчинами.



Страна: Германия
Студия: Koryphäen Film, Post Republic, The, RCS Filmproduktion, Studiocanal Film
Продолжительность: 01:30:52
Перевод: Дублированный - iTunes



Информация о файле:
Кодек: AVC
Формат: MKV
Качество: HDRip-AVC
Видео: MPEG-4 AVC, 1024x428, 24.000 fps, 2200 kbps
Аудио RU: AC3, 6 ch, 48 kHz, 384 kbps
Субтитры: Английские

x264 info: frame I:1430 Avg QP:13.19 size:107880
x264 info: frame P:31354 Avg QP:16.52 size: 27061
x264 info: frame B:98066 Avg QP:21.37 size: 5060
x264 info: consecutive B-frames: 2.7% 4.3% 11.6% 27.6% 16.8% 33.4% 2.3% 0.7% 0.2% 0.1% 0.2%
General
Unique ID : 8613948541731991164906074510070825002 (0x67AFC73E81220BFB5BEEC2F6D3EC02A)
Complete name : D:\uTorrent\Рипы wolf1245\It.s.fo.Your.Own.Good.2020.DUB.iTunes.HDRip-AVC.[wolf1245.MediaBit].mkv
Format : Matroska
Format version : Version 4
File size : 1.68 GiB
Duration : 1 h 30 min
Overall bit rate : 2 649 kb/s
Movie name : It.s.fo.Your.Own.Good.2020.DUB.iTunes.HDRip-AVC.[wolf1245.MediaBit]
Encoded date : UTC 2021-10-10 08:42:00
Writing application : mkvmerge v61.0.0 ('So') 64-bit
Writing library : libebml v1.4.2 + libmatroska v1.6.4

Video
ID : 1
Format : AVC
Format/Info : Advanced Video Codec
Format profile : High@L4.1
Format settings : CABAC / 14 Ref Frames
Format settings, CABAC : Yes
Format settings, Reference frames : 14 frames
Codec ID : V_MPEG4/ISO/AVC
Duration : 1 h 30 min
Bit rate : 2 200 kb/s
Width : 1 024 pixels
Height : 428 pixels
Display aspect ratio : 2.40:1
Frame rate mode : Constant
Frame rate : 24.000 FPS
Color space : YUV
Chroma subsampling : 4:2:0
Bit depth : 8 bits
Scan type : Progressive
Bits/(Pixel*Frame) : 0.209
Stream size : 1.40 GiB (83%)
Title : -=[wolf1245.MediaBit]=-
Writing library : x264 core 161 r3020 d198931
Encoding settings : cabac=1 / ref=14 / deblock=1:-3:-3 / analyse=0x3:0x133 / me=umh / subme=11 / psy=1 / psy_rd=1.00:0.07 / mixed_ref=1 / me_range=48 / chroma_me=1 / trellis=2 / 8x8dct=1 / cqm=0 / deadzone=21,11 / fast_pskip=1 / chroma_qp_offset=-3 / threads=10 / lookahead_threads=2 / sliced_threads=0 / nr=0 / decimate=1 / interlaced=0 / bluray_compat=0 / constrained_intra=0 / bframes=10 / b_pyramid=2 / b_adapt=2 / b_bias=0 / direct=3 / weightb=1 / open_gop=0 / weightp=2 / keyint=240 / keyint_min=24 / scenecut=40 / intra_refresh=0 / rc_lookahead=60 / rc=2pass / mbtree=1 / bitrate=2200 / ratetol=1.0 / qcomp=0.60 / qpmin=0 / qpmax=69 / qpstep=4 / cplxblur=20.0 / qblur=0.5 / vbv_maxrate=50000 / vbv_bufsize=62500 / nal_hrd=none / filler=0 / ip_ratio=1.40 / aq=3:0.80
Language : German
Default : Yes
Forced : No

Audio
ID : 2
Format : AC-3
Format/Info : Audio Coding 3
Commercial name : Dolby Digital
Codec ID : A_AC3
Duration : 1 h 30 min
Bit rate mode : Constant
Bit rate : 448 kb/s
Channel(s) : 6 channels
Channel layout : L R C LFE Ls Rs
Sampling rate : 48.0 kHz
Frame rate : 31.250 FPS (1536 SPF)
Compression mode : Lossy
Stream size : 291 MiB (17%)
Title : iTunes | DUB
Language : Russian
Service kind : Complete Main
Default : Yes
Forced : No

Text
ID : 3
Format : UTF-8
Codec ID : S_TEXT/UTF8
Codec ID/Info : UTF-8 Plain Text
Duration : 1 h 24 min
Bit rate : 62 b/s
Count of elements : 1152
Stream size : 38.7 KiB (0%)
Title : Full
Language : English
Default : No
Forced : No

Menu
00:00:00.000 : :Глава 01
00:10:06.042 : :Глава 02
00:19:59.958 : :Глава 03
00:29:49.500 : :Глава 04
00:38:41.917 : :Глава 05
00:49:50.417 : :Глава 06
00:58:08.208 : :Глава 07
01:07:11.208 : :Глава 08
01:16:18.000 : :Глава 09
01:25:57.417 : :Глава 10
Релиз от: &

Автор релиза:
pb.wtf



Скачать Свадьбы не будет! через торрент https://i115.fastpic.org/big/2021/1010/7e/c79c3a3c42bb3ba8975567f09b325d7e.jpg Скачать, смотреть онлайн Свадьбы не будет! бесплантно в хорошем качестве Описание: Три отца взрослых дочерей объединяются, чтобы помешать своим девочкам совершить самую большую ошибку в их жизни — выйти замуж ... 10 10 2
Торрент: Зарегистрирован [2021-10-10 08:48] · скачан: 45 раз
Статус: √ проверено
Размер: 1.68 GB
Как cкачать? Как скачать Свадьбы не будет! через торрент | UTorrent

28-11-2019 20:33  

Отключить всю рекламу на сайте

    Дорогой пользователь! Огромная просьба, поблагодарите релизера, оцените раздачу и оставьте свои комментарий, если Вы скачали Свадьбы не будет! через торрент бесплатно!
    Комментировать посты могут только пользователи прошедшие не сложную регистрацию
    Показать сообщения:    

    Свадьбы не будет! через торрент
    Скачать бесплатно Свадьбы не будет!
    Свадьбы не будет! скачать торрент
    Свадьбы не будет! смотреть онлайн
    Cкачать фильм Свадьбы не будет! бесплатно
    Свадьбы не будет! скачать торрент в хорошем качестве
    Свадьбы не будет! смотреть онлайн бесплатно в хорошем качестве


    Вы не можете начинать темы
    Вы не можете отвечать на сообщения
    Вы не можете редактировать свои сообщения
    Вы не можете удалять свои сообщения
    Вы не можете голосовать в опросах
    Вы не можете прикреплять файлы к сообщениям
    Вы можете скачивать файлы