Anonymous, добрый день, присоединяйтесь к нам в Telegram!, здесь всегда актуальный адрес сайта, оперативная поддержка и многое другое!

>

5.6

iTunes

7.4

iTunes

7.9

MVO

1

7.7

1 сезон

6.8

iTunes

7.3

1 сезон

13

6.7

1 сезон

8.3

RePack

30

PREMIUM

pack

9.9

Лицензия

ВАЖНО

ИГРА 18+

pack

7.3

RePack

MK11

7.7

RePack

jed

7.8

RePack

fifa19

8.5

RePack

RDR2

RePack

NEED FOR SPEED™ PAYBACK

4 сезон

9 сезон

Бесстыжие 9 сезон

Все сериалы

все сериалы на PB.wtf

RePack

FAR CRY 5

Anonymous, добрый день, мы катастрофически не успеваем собрать деньги на оплату серверов, помогите нам пожалуйста 5,10,15р., для нас важна любая помощь . В качестве благодарности мы отключим Вам всю рекламу на сайте (укажите свой ник в строку Ваше имя)!

×
  
Magnet ссылка

Адское бинго / Bingo Hell (Гиги Сол Герреро) [2021, Ужасы, комедия, WEB-DL 1080p] MVO [HDRezka Studio] pb.wtf

Адское бинго через торрент pb.wtf

Раздают: 2 [ 0 KB/s ]
Размер: 6.31 GB | Добавлен: 9 д. назад | Торрент скачан:33 раза
Смотреть онлайн Адское бинго | Скачать    Ребята, помогите собрать деньги на оплату серверов!!!

10-10-2021 17:38 Адское бинго Скачать торрент  

Адское бинго | Bingo Hell
Год выпуска: 2021
Страна: США
Студия: Amazon Studios
Жанр: Ужасы, комедия
Продолжительность: 01:25:43
Перевод: Профессиональный (многоголосый) | HDRezka Studio
Субтитры: Русские (Forced (HDRezka, AMZN), Full), английские, испанские, французские, немецкие, итальянские

Режиссер: Гиги Сол Герреро

rating

В ролях: Адриана Барраса, Л. Скотт Колдуэлл, Джошуа Калеб Джонсон, Клэйтон Ланди, Джонатан Медина, Бертила Дамас, Гроувер Колсон, Дэвид Дженсен, Келли Мурта, Ричард Брэйк, Венди Конрад, Гиги Сол Герреро

Описание: Пожилая упрямая жительница Оак-Спрингс по имени Лупита противится любым переменам в городке и по привычке указывает людям, как себя вести. Когда владелец задрипанного местного зала для игры в бинго внезапно исчезает, а помещение выкупает незнакомец и тут же устраивает там аттракцион невиданной щедрости, Лупита сразу чует неладное.

Качество: WEB-DL 1080p
Формат: MKV

Видео: MPEG-4 AVC, 9454 Kбит/с, 1920x800, 23.976 кадр/с
Аудио #1: Русский (АС3, 6 ch, 448 Кбит/с, 48.0 KHz)
Аудио #2: Английский (E-АС3, 6 ch, 640 Кбит/с, 48.0 KHz)
скриншот  скриншот  скриншот  скриншот  скриншот  

Источник: Bingo.Hell.2021.1080p.AMZN.WEB-DL.DDP5.1.H.264-CM
General
Unique ID : 254659391132364291258576567464472806077 (0xBF959D5CFCC2288DB5A318B6EB9B02BD)
Complete name : Bingo.Hell.2021.AMZN.WEB-DL.1080p.mkv
Format : Matroska
Format version : Version 4
File size : 6.31 GiB
Duration : 1 h 25 min
Overall bit rate : 10.5 Mb/s
Encoded date : UTC 2021-10-07 06:47:16
Writing application : mkvmerge v7.1.0 ('Good Love') 64bit built on Jul 27 2014 13:06:55
Writing library : libebml v1.3.0 + libmatroska v1.4.1

Video
ID : 1
Format : AVC
Format/Info : Advanced Video Codec
Format profile : High@L4
Format settings : CABAC / 4 Ref Frames
Format settings, CABAC : Yes
Format settings, Reference fra : 4 frames
Codec ID : V_MPEG4/ISO/AVC
Duration : 1 h 25 min
Bit rate : 9 454 kb/s
Width : 1 920 pixels
Height : 800 pixels
Display aspect ratio : 2.40:1
Frame rate mode : Constant
Frame rate : 23.976 (24000/1001) FPS
Color space : YUV
Chroma subsampling : 4:2:0
Bit depth : 8 bits
Scan type : Progressive
Bits/(Pixel*Frame) : 0.257
Stream size : 5.66 GiB (90%)
Language : English
Default : Yes
Forced : No
Color range : Limited
Color primaries : BT.709
Transfer characteristics : BT.709
Matrix coefficients : BT.709

Audio #1
ID : 2
Format : AC-3
Format/Info : Audio Coding 3
Commercial name : Dolby Digital
Codec ID : A_AC3
Duration : 1 h 25 min
Bit rate mode : Constant
Bit rate : 448 kb/s
Channel(s) : 6 channels
Channel layout : L R C LFE Ls Rs
Sampling rate : 48.0 kHz
Frame rate : 31.250 FPS (1536 SPF)
Compression mode : Lossy
Stream size : 275 MiB (4%)
Title : MVO | HDRezka Studio
Language : Russian
Service kind : Complete Main
Default : Yes
Forced : No

Audio #2
ID : 3
Format : E-AC-3
Format/Info : Enhanced AC-3
Commercial name : Dolby Digital Plus
Codec ID : A_EAC3
Duration : 1 h 25 min
Bit rate mode : Constant
Bit rate : 640 kb/s
Channel(s) : 6 channels
Channel layout : L R C LFE Ls Rs
Sampling rate : 48.0 kHz
Frame rate : 31.250 FPS (1536 SPF)
Compression mode : Lossy
Stream size : 392 MiB (6%)
Title : English
Language : English
Service kind : Complete Main
Default : No
Forced : No

Text #1
ID : 4
Format : UTF-8
Codec ID : S_TEXT/UTF8
Codec ID/Info : UTF-8 Plain Text
Duration : 1 h 22 min
Bit rate : 7 b/s
Count of elements : 90
Stream size : 4.71 KiB (0%)
Title : Forced (HDRezka)
Language : Russian
Default : Yes
Forced : No

Text #2
ID : 5
Format : UTF-8
Codec ID : S_TEXT/UTF8
Codec ID/Info : UTF-8 Plain Text
Duration : 1 h 22 min
Bit rate : 2 b/s
Count of elements : 37
Stream size : 1.66 KiB (0%)
Title : Forced (AMZN)
Language : Russian
Default : No
Forced : No

Text #3
ID : 6
Format : UTF-8
Codec ID : S_TEXT/UTF8
Codec ID/Info : UTF-8 Plain Text
Duration : 1 h 24 min
Bit rate : 62 b/s
Count of elements : 791
Stream size : 39.0 KiB (0%)
Title : Full
Language : Russian
Default : No
Forced : No

Text #4
ID : 7
Format : UTF-8
Codec ID : S_TEXT/UTF8
Codec ID/Info : UTF-8 Plain Text
Duration : 1 h 24 min
Bit rate : 44 b/s
Count of elements : 980
Stream size : 27.3 KiB (0%)
Title : English
Language : English
Default : No
Forced : No

Text #5
ID : 8
Format : UTF-8
Codec ID : S_TEXT/UTF8
Codec ID/Info : UTF-8 Plain Text
Duration : 1 h 25 min
Bit rate : 58 b/s
Count of elements : 1369
Stream size : 36.4 KiB (0%)
Title : English [SDH]
Language : English
Default : No
Forced : No

Text #6
ID : 9
Format : UTF-8
Codec ID : S_TEXT/UTF8
Codec ID/Info : UTF-8 Plain Text
Duration : 1 h 24 min
Bit rate : 37 b/s
Count of elements : 787
Stream size : 23.4 KiB (0%)
Title : French
Language : French
Default : No
Forced : No

Text #7
ID : 10
Format : UTF-8
Codec ID : S_TEXT/UTF8
Codec ID/Info : UTF-8 Plain Text
Duration : 1 h 24 min
Bit rate : 38 b/s
Count of elements : 784
Stream size : 23.6 KiB (0%)
Title : German
Language : German
Default : No
Forced : No

Text #8
ID : 11
Format : UTF-8
Codec ID : S_TEXT/UTF8
Codec ID/Info : UTF-8 Plain Text
Duration : 1 h 24 min
Bit rate : 37 b/s
Count of elements : 787
Stream size : 23.6 KiB (0%)
Title : Spanish
Language : Spanish
Default : No
Forced : No

Text #9
ID : 12
Format : UTF-8
Codec ID : S_TEXT/UTF8
Codec ID/Info : UTF-8 Plain Text
Duration : 1 h 24 min
Bit rate : 38 b/s
Count of elements : 785
Stream size : 23.8 KiB (0%)
Title : Italian
Language : Italian
Default : No
Forced : No

pb.wtf



Скачать Адское бинго через торрент https://i115.fastpic.org/big/2021/1006/4d/9f1fcf0225ccff864aca1596b145f94d.jpg Скачать, смотреть онлайн Адское бинго бесплантно в хорошем качестве Описание: Пожилая упрямая жительница Оак-Спрингс по имени Лупита противится любым переменам в городке и по привычке указывает людям, как ... 10 10 3
Торрент: Зарегистрирован [2021-10-10 17:38] · скачан: 33 раз
Статус: √ проверено
Размер: 6.31 GB
Как cкачать? Как скачать Адское бинго через торрент | UTorrent

% Раздел Тема Автор DL S | L
Фильмы 2021 [DVDrip, WEB-DLRip, HDrip] (DUB, MVO) [ 1.46 GB ] Адское бинго / Bingo Hell [2021 WEB-DLRip] MVO [HDRezka Studio] bober100 Скачать
2 | 0
Фильмы 2021 [DVDrip, WEB-DLRip, HDrip] (DUB, MVO) [ 1.83 GB ] Адское бинго / Bingo Hell [2021 WEB-DLRip-AVC] MVO [HDRezka Studio] от MediaBit Lithuania Скачать
3 | 0

28-11-2019 20:33  

Отключить всю рекламу на сайте

    Дорогой пользователь! Огромная просьба, поблагодарите релизера, оцените раздачу и оставьте свои комментарий, если Вы скачали Адское бинго через торрент бесплатно!
    Комментировать посты могут только пользователи прошедшие не сложную регистрацию
    Показать сообщения:    

    Адское бинго через торрент
    Скачать бесплатно Адское бинго
    Адское бинго скачать торрент
    Адское бинго смотреть онлайн
    Cкачать фильм Адское бинго бесплатно
    Адское бинго скачать торрент в хорошем качестве
    Адское бинго смотреть онлайн бесплатно в хорошем качестве


    Вы не можете начинать темы
    Вы не можете отвечать на сообщения
    Вы не можете редактировать свои сообщения
    Вы не можете удалять свои сообщения
    Вы не можете голосовать в опросах
    Вы не можете прикреплять файлы к сообщениям
    Вы можете скачивать файлы