Anonymous, добрый день, присоединяйтесь к нам в Telegram!, здесь всегда актуальный адрес сайта, оперативная поддержка и многое другое!

>

5.6

iTunes

7.4

iTunes

7.9

MVO

1

7.7

1 сезон

6.8

iTunes

7.3

1 сезон

13

6.7

1 сезон

8.3

RePack

30

PREMIUM

pack

9.9

Лицензия

ВАЖНО

ИГРА 18+

pack

7.3

RePack

MK11

7.7

RePack

jed

7.8

RePack

fifa19

8.5

RePack

RDR2

RePack

NEED FOR SPEED™ PAYBACK

4 сезон

9 сезон

Бесстыжие 9 сезон

Все сериалы

все сериалы на PB.wtf

RePack

FAR CRY 5

Anonymous, добрый день, мы катастрофически не успеваем собрать деньги на оплату серверов, помогите нам пожалуйста 5,10,15р., для нас важна любая помощь . В качестве благодарности мы отключим Вам всю рекламу на сайте (укажите свой ник в строку Ваше имя)!

×
  
Magnet ссылка

Еще по одной / Another Round / Druk (Томас Винтерберг) [2020, драма, комедия, HDRip-AVC] [DVO] (Кубик в Кубе) pb.wtf

Еще по одной через торрент pb.wtf

Раздают: 6 [ 34 KB/s ]
Размер: 2.9 GB | Добавлен: 9 д. назад | Торрент скачан:57 раз
Смотреть онлайн Еще по одной | Скачать    Ребята, помогите собрать деньги на оплату серверов!!!

10-10-2021 17:43 Еще по одной Скачать торрент  

Еще по одной / Another Round / Druk Год выпуска: 2020
Страна: Дания, Швеция, Нидерланды
Жанр: драма, комедия
Продолжительность: 01:56:20
Перевод: Профессиональный (двухголосый закадровый) Кубик в Кубе

Субтитры: русские (полные), датские (полные)
Навигация по главам: есть

Режиссер: Томас Винтерберг

В ролях: Мадс Миккельсен, Томас Бо Ларсен, Магнус Милланг, Ларс Ранте, Мария Бонневи, Хелена Рейнгор Нойманн, Суссе Вольд, Магнус Шёруп, Сайлас Корнелиус Ван, Альберт Рудбек Линдхардт

Описание: В ресторане собираются учитель истории, психологии, музыки и физрук, чтобы отметить 40-летие одного из них. И решают проверить научную теорию о том, что c самого рождения человек страдает от нехватки алкоголя в крови, а чтобы стать по-настоящему счастливым, нужно быть немного нетрезвым. Друзья договариваются наблюдать, как возлияния скажутся на их работе и личной жизни, и устанавливают правила: не пить вечером и по выходным.

rating

Качество видео: HDRip-AVC
Формат: MKV
Видео кодек: H.264
Аудио кодек: AC3
Видео: 1152x576, 24,000 fps, 2733 kbps
Аудио: AC3, DD 5.1, 384 kbps, 48 kHz (Кубик в Кубе)
Аудио: AC3, DD 5.1, 448 kbps, 48 kHz (Оригинальная датская озвучка)
Субтитры: русские (полные), датские (полные)

Скачать: SAMPLE 52.00MB

Доп. информация: В фильме встречаются текстовые вставки (без перевода), туда вставлена озвучка Юрия Сербина. Рекламы нет.
Формат : Matroska
Версия формата : Version 4
Размер файла : 2,90 Гбайт
Продолжительность : 1 ч. 56 м.
Общий поток : 3567 Кбит/сек
Дата кодирования : UTC 2021-10-10 01:00:39
Программа кодирования : mkvmerge v8.3.0 ('Over the Horizon') 64bit
Библиотека кодирования : libebml v1.3.1 + libmatroska v1.4.2

Видео
Идентификатор : 1
Формат : AVC
Формат/Информация : Advanced Video Codec
Профиль формата : High@L4.1
Настройки формата : CABAC / 10 Ref Frames
Параметр CABAC формата : Да
Параметр RefFrames формата : 10 кадров
Идентификатор кодека : V_MPEG4/ISO/AVC
Продолжительность : 1 ч. 56 м.
Битрейт : 2733 Кбит/сек
Ширина : 1152 пикселя
Высота : 576 пикселей
Соотношение сторон : 2,000
Режим частоты кадров : Постоянный
Частота кадров : 24,000 кадра/сек
Цветовое пространство : YUV
Субдискретизация насыщенности : 4:2:0
Битовая глубина : 8 бит
Тип развёртки : Прогрессивная
Бит/(Пиксели*Кадры) : 0.172
Размер потока : 2,22 Гбайт (77%)
Библиотека кодирования : x264 core 152 r2851 ba24899
Настройки программы : cabac=1 / ref=10 / deblock=1:-2:-1 / analyse=0x3:0x133 / me=umh / subme=10 / psy=1 / psy_rd=0.95:0.05 / mixed_ref=1 / me_range=32 / chroma_me=1 / trellis=2 / 8x8dct=1 / cqm=0 / deadzone=21,11 / fast_pskip=0 / chroma_qp_offset=-3 / threads=3 / lookahead_threads=1 / sliced_threads=0 / nr=0 / decimate=1 / interlaced=0 / bluray_compat=0 / constrained_intra=0 / bframes=9 / b_pyramid=2 / b_adapt=2 / b_bias=0 / direct=3 / weightb=1 / open_gop=0 / weightp=2 / keyint=240 / keyint_min=23 / scenecut=40 / intra_refresh=0 / rc_lookahead=80 / rc=2pass / mbtree=1 / bitrate=2733 / ratetol=1.0 / qcomp=0.60 / qpmin=10 / qpmax=51 / qpstep=4 / cplxblur=20.0 / qblur=0.5 / ip_ratio=1.40 / aq=1:1.00
Язык : Danish
Default : Да
Forced : Нет

Аудио #1
Идентификатор : 2
Формат : AC-3
Формат/Информация : Audio Coding 3
Коммерческое название : Dolby Digital
Идентификатор кодека : A_AC3
Продолжительность : 1 ч. 56 м.
Вид битрейта : Постоянный
Битрейт : 384 Кбит/сек
Каналы : 6 каналов
Channel layout : L R C LFE Ls Rs
Частота : 48,0 КГц
Частота кадров : 31,250 кадров/сек (1536 SPF)
Битовая глубина : 16 бит
Метод сжатия : С потерями
Размер потока : 319 Мбайт (11%)
Заголовок : Кубик в Кубе
Язык : Russian
ServiceKind/String : Complete Main
Default : Да
Forced : Нет

Аудио #2
Идентификатор : 3
Формат : AC-3
Формат/Информация : Audio Coding 3
Коммерческое название : Dolby Digital
Идентификатор кодека : A_AC3
Продолжительность : 1 ч. 56 м.
Вид битрейта : Постоянный
Битрейт : 448 Кбит/сек
Каналы : 6 каналов
Channel layout : L R C LFE Ls Rs
Частота : 48,0 КГц
Частота кадров : 31,250 кадров/сек (1536 SPF)
Битовая глубина : 16 бит
Метод сжатия : С потерями
Размер потока : 373 Мбайт (13%)
Заголовок : Оригинальная дорожка
Язык : Danish
ServiceKind/String : Complete Main
Default : Нет
Forced : Нет

Текст #1
Идентификатор : 4
Формат : UTF-8
Идентификатор кодека : S_TEXT/UTF8
Идентификатор кодека/Информация : UTF-8 Plain Text
Продолжительность : 1 ч. 52 м.
Битрейт : 61 бит/сек
ElementCount : 1009
Размер потока : 50,4 Кбайт (0%)
Язык : Russian
Default : Нет
Forced : Нет

Текст #2
Идентификатор : 5
Формат : UTF-8
Идентификатор кодека : S_TEXT/UTF8
Идентификатор кодека/Информация : UTF-8 Plain Text
Продолжительность : 1 ч. 55 м.
Битрейт : 46 бит/сек
ElementCount : 940
Размер потока : 39,3 Кбайт (0%)
Язык : Danish
Default : Нет
Forced : Нет

Меню
00:00:00.000 : en:Chapter 01
00:09:59.666 : en:Chapter 02
00:19:59.750 : en:Chapter 03
00:29:59.875 : en:Chapter 04
00:39:59.708 : en:Chapter 05
00:49:59.833 : en:Chapter 06
00:59:59.708 : en:Chapter 07
01:09:59.791 : en:Chapter 08
01:19:59.583 : en:Chapter 09
01:29:59.875 : en:Chapter 10
01:39:59.416 : en:Chapter 11
01:49:59.916 : en:Chapter 12
скриншот  скриншот  скриншот  
pb.wtf



Скачать Еще по одной через торрент https://b.radikal.ru/b18/2110/53/774761331589.png Скачать, смотреть онлайн Еще по одной бесплантно в хорошем качестве Описание: В ресторане собираются учитель истории, психологии, музыки и физрук, чтобы отметить 40-летие одного из них. И решают проверить ... 10 10 3
Торрент: Зарегистрирован [2021-10-10 17:43] · скачан: 57 раз
Статус: √ проверено
Размер: 2.9 GB
Как cкачать? Как скачать Еще по одной через торрент | UTorrent

% Раздел Тема Автор DL S | L
Фильмы [HD 720p, 1080p] (Звук Cam, VO, DVO) [ 9.61 GB ] Еще по одной / Druk / Another Round [2020 BDRip 1080p] DVO [Кубик в кубе] bober100 Скачать
9 | 1
Фильмы 2019-2020 [DVDrip, WEB-DLRip, HDrip] (DUB, MVO) [ 2.13 GB ] Еще по одной / Druk / Another Round [2020 BDRip] - Twi7ter Скачать
66 | 0
Фильмы 2019-2020 [DVDrip, WEB-DLRip, HDrip] (DUB, MVO) [ 1.41 GB ] Еще по одной / Druk / Another Round [2020 BDRip] - Twi7ter Скачать
23 | 1
Фильмы 2019-2020 [DVDrip, WEB-DLRip, HDrip] (DUB, MVO) [ 1.46 GB ] Еще по одной / Druk / Another Round [2020 HDRip-AVC] от MediaBit Lithuania Скачать
4 | 0
Фильмы 2019-2020 [DVDrip, WEB-DLRip, HDrip] (DUB, MVO) [ 2.13 GB ] Еще по одной / Druk / Another Round [2020 BDRip] bober100 Скачать
3 | 0
Фильмы [HD 720p, 1080p] (Хороший звук DUB, MVO) [ 9.61 GB ] Еще по одной / Druk / Another Round [2020 BDRip 1080p] bober100 Скачать
4 | 0
Фильмы [HD 720p, 1080p] (Хороший звук DUB, MVO) [ 5.71 GB ] Еще по одной / Druk / Another Round [2020 BDRip 720p] bober100 Скачать
2 | 0

28-11-2019 20:33  

Отключить всю рекламу на сайте

    Дорогой пользователь! Огромная просьба, поблагодарите релизера, оцените раздачу и оставьте свои комментарий, если Вы скачали Еще по одной через торрент бесплатно!
    Комментировать посты могут только пользователи прошедшие не сложную регистрацию
    Показать сообщения:    

    Еще по одной через торрент
    Скачать бесплатно Еще по одной
    Еще по одной скачать торрент
    Еще по одной смотреть онлайн
    Cкачать фильм Еще по одной бесплатно
    Еще по одной скачать торрент в хорошем качестве
    Еще по одной смотреть онлайн бесплатно в хорошем качестве


    Вы не можете начинать темы
    Вы не можете отвечать на сообщения
    Вы не можете редактировать свои сообщения
    Вы не можете удалять свои сообщения
    Вы не можете голосовать в опросах
    Вы не можете прикреплять файлы к сообщениям
    Вы можете скачивать файлы