Anonymous, добрый день, присоединяйтесь к нам в Telegram!, здесь всегда актуальный адрес сайта, оперативная поддержка и многое другое!

>

5.6

iTunes

7.4

iTunes

7.9

MVO

1

7.7

1 сезон

6.8

iTunes

7.3

1 сезон

13

6.7

1 сезон

8.3

RePack

30

ULTIMATE

pack

9.9

Лицензия

ВАЖНО

ИГРА 18+

pack

7.3

RePack

MK11

7.7

RePack

jed

7.8

RePack

fifa19

8.5

RePack

RDR2

RePack

NEED FOR SPEED™ PAYBACK

4 сезон

9 сезон

Бесстыжие 9 сезон

Все сериалы

все сериалы на PB.wtf

RePack

FAR CRY 5

Anonymous, добрый день, мы катастрофически не успеваем собрать деньги на оплату серверов, помогите нам пожалуйста 5,10,15р., для нас важна любая помощь . В качестве благодарности мы отключим Вам всю рекламу на сайте (укажите свой ник в строку Ваше имя)!

×
  
Magnet ссылка

Меняющие реальность / The Adjustment Bureau (Джордж Нолфи) [2011 г., фантастика, триллер, мелодрама, BDRip - HEVC 1080p 10 bit 60 FPS, DUB] pb.wtf

Меняющие реальность через торрент pb.wtf

Раздают: 13 [ 0 KB/s ]
Размер: 3.88 GB | Добавлен: 9 д. назад | Торрент скачан:105 раз
Смотреть онлайн Меняющие реальность | Скачать    Ребята, помогите собрать деньги на оплату серверов!!!

10-10-2021 18:18 Меняющие реальность Скачать торрент  

The Adjustment Bureau
«Ради нее он готов изменить мир»


Год выпуска: 2011
Страна: США
Жанр: фантастика, триллер, мелодрама

Продолжительность: 01:45:45
Перевод: Дублированный | Blu-ray CEE
Субтитры: русские | R5

Режиссер: Джордж Нолфи
В ролях: Мэтт Дэймон, Эмили Блант, Энтони Маки, Джон Слэттери, Теренс Стэмп, Майкл Келли, Флоренс Кастринер, Филис Макбрид, Натали Картер, Чак Скарборо

Описание:
Волею случая конгрессмен Дэвид Норрис узнает, что мир движется по заранее написанному плану, за исполнением которого следят работающие в неком Бюро Корректировки люди в шляпах, обладающие сверхъестественными способностями. Как назло, план не предусматривает дальнейших пересечений с балериной Элизой, в которую политик влюблен. Дэвид заручается поддержкой одного из агентов Бюро и начинает неравную борьбу с остальными, отстаивая свободу выбора и личное счастье...

Мировая премьера: 14 февраля 2011


Качество: BDRip 1080p Rip by DD2D3
Формат: MKV
Видео: V_MPEGH/ISO/HEVC; 1920x1040 (1.85:1); 4803 Kbps; 59,940 fps; 0,040 bpp
Аудио: русский; AC3; 448 Kbps; CBR; 6 ch ||
Навигация по главам: есть



Общее
Уникальный идентификатор : 184305285918447931100981477061742692306 (0x8AA7E82AFC7EAA5CA681927D564E07D2)
Полное имя : D:\The Adjustment Bureau (2011) BDRip - HEVC 1080p 10 bit 60 FPS.mkv
Формат : Matroska
Версия формата : Version 4
Размер файла : 3,88 Гбайт
Продолжительность : 1 ч. 45 м.
Общий поток : 5 258 Кбит/сек
Название фильма : Rip by from DD2D3
Дата кодирования : UTC 2021-10-09 20:39:19
Программа кодирования : mkvmerge v10.0.0 ('To Drown In You') 32bit
Библиотека кодирования : libebml v1.3.4 + libmatroska v1.4.5
Attachments : poster

Видео
Идентификатор : 1
Формат : HEVC
Формат/Информация : High Efficiency Video Coding
Профиль формата : Main 10@L5.1@Main
Идентификатор кодека : V_MPEGH/ISO/HEVC
Продолжительность : 1 ч. 45 м.
Битрейт : 4 803 Кбит/сек
Ширина : 1 920 пикселей
Высота : 1 040 пикселей
Соотношение сторон : 1,85:1
Режим частоты кадров : Постоянный
Частота кадров : 59,940 (60000/1001) кадров/сек
Цветовое пространство : YUV
Субдискретизация насыщенности : 4:2:0
Битовая глубина : 10 бит
Бит/(Пиксели*Кадры) : 0.040
Размер потока : 3,55 Гбайт (91%)
Библиотека кодирования : x265 3.5+10-82786fccc:[Windows][GCC 11.1.0][64 bit] 10bit
Настройки программы : cpuid=1111039 / frame-threads=16 / numa-pools=4 / wpp / pmode / pme / no-psnr / no-ssim / log-level=2 / input-csp=1 / input-res=1920x1040 / interlace=0 / total-frames=380316 / level-idc=51 / high-tier=1 / uhd-bd=0 / ref=3 / no-allow-non-conformance / no-repeat-headers / annexb / no-aud / no-eob / no-eos / no-hrd / info / hash=0 / no-temporal-layers / open-gop / min-keyint=24 / keyint=240 / gop-lookahead=0 / bframes=4 / b-adapt=2 / b-pyramid / bframe-bias=0 / rc-lookahead=20 / lookahead-slices=6 / scenecut=40 / hist-scenecut=0 / radl=0 / no-splice / no-intra-refresh / ctu=64 / min-cu-size=8 / no-rect / no-amp / max-tu-size=32 / tu-inter-depth=1 / tu-intra-depth=1 / limit-tu=0 / rdoq-level=0 / dynamic-rd=0.00 / no-ssim-rd / signhide / no-tskip / nr-intra=0 / nr-inter=0 / no-constrained-intra / strong-intra-smoothing / max-merge=3 / limit-refs=1 / no-limit-modes / me=1 / subme=2 / merange=57 / temporal-mvp / no-frame-dup / no-hme / weightp / no-weightb / no-analyze-src-pics / deblock=0:0 / sao / no-sao-non-deblock / rd=3 / selective-sao=4 / early-skip / rskip / no-fast-intra / no-tskip-fast / no-cu-lossless / b-intra / no-splitrd-skip / rdpenalty=0 / psy-rd=0.40 / psy-rdoq=0.00 / no-rd-refine / no-lossless / cbqpoffs=-2 / crqpoffs=-2 / rc=abr / bitrate=4800 / qcomp=0.72 / qpstep=4 / stats-write=0 / stats-read=2 / cplxblur=20.0 / qblur=0.5 / ipratio=1.40 / pbratio=1.30 / aq-mode=2 / aq-strength=1.00 / cutree / zone-count=0 / no-strict-cbr / qg-size=32 / no-rc-grain / qpmax=69 / qpmin=0 / no-const-vbv / sar=1 / overscan=0 / videoformat=5 / range=0 / colorprim=1 / transfer=1 / colormatrix=1 / chromaloc=0 / display-window=0 / cll=0,0 / min-luma=0 / max-luma=1023 / log2-max-poc-lsb=8 / vui-timing-info / vui-hrd-info / slices=1 / no-opt-qp-pps / no-opt-ref-list-length-pps / no-multi-pass-opt-rps / scenecut-bias=0.05 / hist-threshold=0.03 / no-opt-cu-delta-qp / no-aq-motion / no-hdr10 / no-hdr10-opt / no-dhdr10-opt / no-idr-recovery-sei / analysis-reuse-level=0 / analysis-save-reuse-level=0 / analysis-load-reuse-level=0 / scale-factor=0 / refine-intra=0 / refine-inter=0 / refine-mv=1 / refine-ctu-distortion=0 / no-limit-sao / ctu-info=0 / no-lowpass-dct / refine-analysis-type=0 / copy-pic=1 / max-ausize-factor=1.0 / no-dynamic-refine / no-single-sei / no-hevc-aq / no-svt / no-field / qp-adaptation-range=1.00 / scenecut-aware-qp=0conformance-window-offsets / right=0 / bottom=0 / decoder-max-rate=0 / no-vbv-live-multi-pass
Default : Да
Forced : Нет
Цветовой диапазон : Limited
Основные цвета : BT.709
Характеристики трансфера : BT.709
Коэффициенты матрицы : BT.709

Аудио
Идентификатор : 2
Формат : AC-3
Формат/Информация : Audio Coding 3
Коммерческое название : Dolby Digital
Идентификатор кодека : A_AC3
Продолжительность : 1 ч. 45 м.
Вид битрейта : Постоянный
Битрейт : 448 Кбит/сек
Каналы : 6 каналов
Channel layout : L R C LFE Ls Rs
Частота : 48,0 КГц
Частота кадров : 31,250 кадров/сек (1536 SPF)
Метод сжатия : С потерями
Размер потока : 339 Мбайт (9%)
Заголовок : Дубляж, Blu-ray CEE
Язык : Russian
Service kind : Complete Main
Default : Да
Forced : Нет

Текст
Идентификатор : 3
Формат : UTF-8
Идентификатор кодека : S_TEXT/UTF8
Идентификатор кодека/Информация : UTF-8 Plain Text
Продолжительность : 1 ч. 27 м.
Битрейт : 2 бит/сек
Count of elements : 24
Размер потока : 1,30 Кбайт (0%)
Заголовок : forced, R5
Язык : Russian
Default : Да
Forced : Нет

Меню
00:00:00.000 : en:Chapter 01
00:06:37.772 : en:Chapter 02
00:14:17.314 : en:Chapter 03
00:20:58.215 : en:Chapter 04
00:28:35.547 : en:Chapter 05
00:31:11.494 : en:Chapter 06
00:35:22.078 : en:Chapter 07
00:38:58.711 : en:Chapter 08
00:43:07.001 : en:Chapter 09
00:51:35.050 : en:Chapter 10
00:58:33.009 : en:Chapter 11
01:02:14.605 : en:Chapter 12
01:07:32.089 : en:Chapter 13
01:12:00.649 : en:Chapter 14
01:14:13.449 : en:Chapter 15
01:19:47.574 : en:Chapter 16
01:24:11.504 : en:Chapter 17
01:30:00.603 : en:Chapter 18
01:35:53.497 : en:Chapter 19
01:38:54.470 : en:Chapter 20
скриншот   скриншот   скриншот   скриншот  


© Оформление by DD2D3 pb.wtf



Скачать Меняющие реальность через торрент http://images.vfl.ru/ii/1633888968/744b4933/36198680.jpg Скачать, смотреть онлайн Меняющие реальность бесплантно в хорошем качестве Описание: Волею случая конгрессмен Дэвид Норрис узнает, что мир движется по заранее написанному плану, за исполнением которого следят ... 10 10 6
Info! Золотая раздача, скачанное не засчитывается.
Торрент: Зарегистрирован [2021-10-10 18:18] · скачан: 105 раз
Статус: √ проверено
Размер: 3.88 GB
Как cкачать? Как скачать Меняющие реальность через торрент | UTorrent

% Раздел Тема Автор DL S | L
Фильмы 2011 [ 2.05 GB ] Меняющие реальность / Adjustment Bureau The [2011 HDRip лицензия] Lil Badun Скачать
4 | 0
Фильмы (Blu-ray, BD-Remux, HDDVD) [ 32.16 GB ] Меняющие реальность / The Adjustment Bureau [2011 BDRemux лицензия] Ворон Скачать
2 | 0
Фильмы [HD 720p, 1080p] (Хороший звук DUB, MVO) [ 6.72 GB ] Меняющие реальность / The Adjustment Bureau [2011 BDRip 720p лицензия] Ke$h@ Скачать
1 | 1
Фильмы (DVD фильмы) [ 7.52 GB ] Меняющие реальность / The Adjustment Bureau [2011 DVD9] R5 SD Скачать
1 | 0
Фильмы [HD 720p, 1080p] (Хороший звук DUB, MVO) [ 8.22 GB ] Меняющие реальность / The Adjustment Bureau [2011 BDRip 1080p лицензия] SD Скачать
4 | 0
Фильмы 2011 [ 708 MB ] Меняющие реальность / The Adjustment Bureau [2011 HDRip лицензия] 700 mb SD Скачать
1 | 0

28-11-2019 20:33  

Отключить всю рекламу на сайте

11-10-2021 11:51 Меняющие реальность Скачать торрент  

Спасибо за хороший фильм в качестве pb.wtf



13-10-2021 19:51 Меняющие реальность Скачать торрент  

Супер!!! Вот это подарок!!! Шедевр!!!
Большое Спасибо dd2d3!
Спасибо от всех любителей 1080pх60fps High&End ваши релизы бомба!
Как всегда помогу с раздачей!


Спасибо Друг, что ты есть!

Best Regards, Your V&S!
pb.wtf



15-10-2021 14:46 Меняющие реальность Скачать торрент  

норма кеноpb.wtf



    Дорогой пользователь! Огромная просьба, поблагодарите релизера, оцените раздачу и оставьте свои комментарий, если Вы скачали Меняющие реальность через торрент бесплатно!
    Комментировать посты могут только пользователи прошедшие не сложную регистрацию
    Показать сообщения:    

    Меняющие реальность через торрент
    Скачать бесплатно Меняющие реальность
    Меняющие реальность скачать торрент
    Меняющие реальность смотреть онлайн
    Cкачать фильм Меняющие реальность бесплатно
    Меняющие реальность скачать торрент в хорошем качестве
    Меняющие реальность смотреть онлайн бесплатно в хорошем качестве


    Вы не можете начинать темы
    Вы не можете отвечать на сообщения
    Вы не можете редактировать свои сообщения
    Вы не можете удалять свои сообщения
    Вы не можете голосовать в опросах
    Вы не можете прикреплять файлы к сообщениям
    Вы можете скачивать файлы