Anonymous, добрый вечер, присоединяйтесь к нам в Telegram!, здесь всегда актуальный адрес сайта, оперативная поддержка и многое другое!

>

5.5

iTunes

7.4

iTunes

7.9

iTunes

1

7.7

1 сезон

6.8

iTunes

7.3

1 сезон

13

6.7

1 сезон

8.3

RePack

30

ULTIMATE

pack

9.9

Лицензия

ВАЖНО

ИГРА 18+

pack

7.3

RePack

MK11

7.7

RePack

jed

7.8

RePack

fifa19

8.5

RePack

RDR2

RePack

NEED FOR SPEED™ PAYBACK

4 сезон

9 сезон

Бесстыжие 9 сезон

Все сериалы

все сериалы на PB.wtf

RePack

FAR CRY 5

Anonymous, добрый вечер, мы катастрофически не успеваем собрать деньги на оплату серверов, помогите нам пожалуйста 5,10,15р., для нас важна любая помощь . В качестве благодарности мы отключим Вам всю рекламу на сайте (укажите свой ник в строку Ваше имя)!

×
  
Magnet ссылка

Семь Смертных Грехов: Узники небес / Gekijouban Nanatsu no Taizai: Tenkuu no Torawarebito (Нисиката Ясуто) [2018 г., аниме, приключения, фэнтези, BDRip - HEVC 1080p 10 bit 60 FPS, MVO] pb.wtf

Семь Смертных Грехов: Узники небес через торрент pb.wtf

Раздают: 7 [ 0 KB/s ]
Размер: 3.93 GB | Добавлен: 15 д. назад | Торрент скачан:42 раза
Смотреть онлайн Семь Смертных Грехов: Узники небес | Скачать    Ребята, помогите собрать деньги на оплату серверов!!!

10-10-2021 18:43 Семь Смертных Грехов: Узники небес Скачать торрент  

Gekijouban Nanatsu no Taizai: Tenkuu no Torawarebito


Год выпуска: 2018
Страна: Япония
Жанр: аниме, приключения, фэнтези

Продолжительность: 01:39:34
Перевод: Многоголосый | Anilibria
Субтитры: русские | Anilibria

Режиссер: Нисиката Ясуто, Нориюки Абэ
В ролях: Юки Кадзи, Сора Амамия, Мисаки Куно, Аои Юки, Тацухиса Судзуки, Дзюн Фукуяма, Мамору Мияно, Рёхэй Кимура, Такахиро Сакурай, Хироки Тоти, Хироси Ивасаки, Мао Итимити, Дайсукэ Оно, Юсукэ Кобаяси, Кэндзиро Цуда, Аяхи Такагаки, Кодзи Юса

Описание:
После того, как «Семь Смертных грехов» и Элизабет восстановили порядок в королевстве, король принял решение отметить день своего рождения с особой торжественностью. Герои отправляются на затерянный остров за редким ингредиентом — «небесной рыбой». Мелиодас и Хоук попадают в небесный дворец, парящий над облаками. По ошибке капитана принимают за преступника и заключают в темнице. Тем временем местные проводят ритуал защиты от монстра, пробуждающегося раз в три тысячелетия. Помехой становятся «Чёрные рыцари» из армии клана демонов. Они лишают чудовище метки и угрожают обитателям дворца уничтожением. Мелиодасу и его друзьям остаётся только сразиться с ними.

Мировая премьера: 18 августа 2018,


Качество: BDRip 1080p Rip by DD2D3
Формат: MKV
Видео: V_MPEGH/ISO/HEVC; 1920x1080 (16:9); 5003 Kbps; 59,940 fps; 0,040 bpp
Аудио: русский; AC3; 640 Kbps; CBR; 6 ch ||
Навигация по главам: нет



Общее
Уникальный идентификатор : 229090283964862795793035207579118229500 (0xAC592F0C92E242D0B03CE75DAC6257FC)
Полное имя : D:\Nanatsu no Taizai (2015-2021) BDRip - HEVC 1080p 10 bit 60 FPS\Nanatsu no Taizai Movie Tenkuu no Torawarebito (2018) BDRip - HEVC 1080p 10 bit 60 FPS.mkv
Формат : Matroska
Версия формата : Version 4
Размер файла : 3,93 Гбайт
Продолжительность : 1 ч. 39 м.
Общий поток : 5 650 Кбит/сек
Название фильма : Rip by from DD2D3
Дата кодирования : UTC 2021-10-03 18:33:48
Программа кодирования : mkvmerge v10.0.0 ('To Drown In You') 32bit
Библиотека кодирования : libebml v1.3.4 + libmatroska v1.4.5
Attachments : poster

Видео
Идентификатор : 1
Формат : HEVC
Формат/Информация : High Efficiency Video Coding
Профиль формата : Main 10@L5.1@Main
Идентификатор кодека : V_MPEGH/ISO/HEVC
Продолжительность : 1 ч. 39 м.
Битрейт : 5 003 Кбит/сек
Ширина : 1 920 пикселей
Высота : 1 080 пикселей
Соотношение сторон : 16:9
Режим частоты кадров : Постоянный
Частота кадров : 59,940 (60000/1001) кадров/сек
Цветовое пространство : YUV
Субдискретизация насыщенности : 4:2:0
Битовая глубина : 10 бит
Бит/(Пиксели*Кадры) : 0.040
Размер потока : 3,48 Гбайт (89%)
Библиотека кодирования : x265 3.5+10-82786fccc:[Windows][GCC 11.1.0][64 bit] 10bit
Настройки программы : cpuid=1111039 / frame-threads=16 / numa-pools=4 / wpp / pmode / pme / no-psnr / no-ssim / log-level=2 / input-csp=1 / input-res=1920x1080 / interlace=0 / total-frames=358098 / level-idc=51 / high-tier=1 / uhd-bd=0 / ref=3 / no-allow-non-conformance / no-repeat-headers / annexb / no-aud / no-eob / no-eos / no-hrd / info / hash=0 / no-temporal-layers / open-gop / min-keyint=24 / keyint=240 / gop-lookahead=0 / bframes=2 / b-adapt=2 / b-pyramid / bframe-bias=0 / rc-lookahead=20 / lookahead-slices=6 / scenecut=40 / hist-scenecut=0 / radl=0 / no-splice / no-intra-refresh / ctu=64 / min-cu-size=8 / no-rect / no-amp / max-tu-size=32 / tu-inter-depth=1 / tu-intra-depth=1 / limit-tu=0 / rdoq-level=0 / dynamic-rd=0.00 / no-ssim-rd / signhide / no-tskip / nr-intra=0 / nr-inter=0 / no-constrained-intra / strong-intra-smoothing / max-merge=3 / limit-refs=1 / no-limit-modes / me=1 / subme=2 / merange=57 / temporal-mvp / no-frame-dup / no-hme / weightp / no-weightb / no-analyze-src-pics / deblock=1:1 / sao / no-sao-non-deblock / rd=3 / selective-sao=4 / early-skip / rskip / no-fast-intra / no-tskip-fast / no-cu-lossless / b-intra / no-splitrd-skip / rdpenalty=0 / psy-rd=0.40 / psy-rdoq=0.00 / no-rd-refine / no-lossless / cbqpoffs=-2 / crqpoffs=-2 / rc=abr / bitrate=5000 / qcomp=0.72 / qpstep=4 / stats-write=0 / stats-read=2 / cplxblur=20.0 / qblur=0.5 / ipratio=1.40 / pbratio=1.30 / aq-mode=2 / aq-strength=0.40 / cutree / zone-count=0 / no-strict-cbr / qg-size=32 / no-rc-grain / qpmax=69 / qpmin=0 / no-const-vbv / sar=1 / overscan=0 / videoformat=5 / range=0 / colorprim=1 / transfer=1 / colormatrix=1 / chromaloc=0 / display-window=0 / cll=0,0 / min-luma=0 / max-luma=1023 / log2-max-poc-lsb=8 / vui-timing-info / vui-hrd-info / slices=1 / no-opt-qp-pps / no-opt-ref-list-length-pps / no-multi-pass-opt-rps / scenecut-bias=0.05 / hist-threshold=0.03 / no-opt-cu-delta-qp / no-aq-motion / no-hdr10 / no-hdr10-opt / no-dhdr10-opt / no-idr-recovery-sei / analysis-reuse-level=0 / analysis-save-reuse-level=0 / analysis-load-reuse-level=0 / scale-factor=0 / refine-intra=0 / refine-inter=0 / refine-mv=1 / refine-ctu-distortion=0 / no-limit-sao / ctu-info=0 / no-lowpass-dct / refine-analysis-type=0 / copy-pic=1 / max-ausize-factor=1.0 / no-dynamic-refine / no-single-sei / no-hevc-aq / no-svt / no-field / qp-adaptation-range=1.00 / scenecut-aware-qp=0conformance-window-offsets / right=0 / bottom=0 / decoder-max-rate=0 / no-vbv-live-multi-pass
Default : Да
Forced : Нет
Цветовой диапазон : Limited
Основные цвета : BT.709
Характеристики трансфера : BT.709
Коэффициенты матрицы : BT.709

Аудио
Идентификатор : 2
Формат : AC-3
Формат/Информация : Audio Coding 3
Коммерческое название : Dolby Digital
Идентификатор кодека : A_AC3
Продолжительность : 1 ч. 39 м.
Вид битрейта : Постоянный
Битрейт : 640 Кбит/сек
Каналы : 6 каналов
Channel layout : L R C LFE Ls Rs
Частота : 48,0 КГц
Частота кадров : 31,250 кадров/сек (1536 SPF)
Метод сжатия : С потерями
Размер потока : 456 Мбайт (11%)
Заголовок : AniLibria. TV
Язык : Russian
Service kind : Complete Main
Default : Да
Forced : Нет

Текст
Идентификатор : 3
Формат : UTF-8
Идентификатор кодека : S_TEXT/UTF8
Идентификатор кодека/Информация : UTF-8 Plain Text
Продолжительность : 1 ч. 38 м.
Битрейт : 88 бит/сек
Count of elements : 1339
Размер потока : 63,8 Кбайт (0%)
Заголовок : Субтитры
Язык : Russian
Default : Нет
Forced : Нет
скриншот  скриншот   скриншот  


© Оформление by DD2D3 pb.wtf



Скачать Семь Смертных Грехов: Узники небес через торрент http://images.vfl.ru/ii/1633890373/746dbdba/36198953.jpg Скачать, смотреть онлайн Семь Смертных Грехов: Узники небес бесплантно в хорошем качестве Описание: После того, как «Семь Смертных грехов» и Элизабет восстановили порядок в королевстве, король принял решение отметить день своего ... 10 10 4
Торрент: Зарегистрирован [2021-10-10 18:43] · скачан: 42 раз
Статус: √ проверено
Размер: 3.93 GB
Как cкачать? Как скачать Семь Смертных Грехов: Узники небес через торрент | UTorrent

28-11-2019 20:33  

Отключить всю рекламу на сайте

11-10-2021 01:08 Семь Смертных Грехов: Узники небес Скачать торрент  

Топик был перенесен из форума Фильмы (HD 720p, 1080p) (48-60 fps) в форум Мультфильмы (48-60 fps)


bober100pb.wtf



11-10-2021 13:44 Семь Смертных Грехов: Узники небес Скачать торрент  

Спасибо Увидеть бы от вас шедевры "Хаяо Миядзаки"pb.wtf



11-10-2021 16:07 Семь Смертных Грехов: Узники небес Скачать торрент  

Это так на пробу выложил, так как с аниме много нюансов. Если качество зайдет, хочу сделать полностью аниме семь смертных грехов.pb.wtf



21-10-2021 20:48 Семь Смертных Грехов: Узники небес Скачать торрент  

Посмотрел, отличное качество, плавная картинка без артефактов pb.wtf



    Дорогой пользователь! Огромная просьба, поблагодарите релизера, оцените раздачу и оставьте свои комментарий, если Вы скачали Семь Смертных Грехов: Узники небес через торрент бесплатно!
    Комментировать посты могут только пользователи прошедшие не сложную регистрацию
    Показать сообщения:    

    Семь Смертных Грехов: Узники небес через торрент
    Скачать бесплатно Семь Смертных Грехов: Узники небес
    Семь Смертных Грехов: Узники небес скачать торрент
    Семь Смертных Грехов: Узники небес смотреть онлайн
    Cкачать фильм Семь Смертных Грехов: Узники небес бесплатно
    Семь Смертных Грехов: Узники небес скачать торрент в хорошем качестве
    Семь Смертных Грехов: Узники небес смотреть онлайн бесплатно в хорошем качестве


    Вы не можете начинать темы
    Вы не можете отвечать на сообщения
    Вы не можете редактировать свои сообщения
    Вы не можете удалять свои сообщения
    Вы не можете голосовать в опросах
    Вы не можете прикреплять файлы к сообщениям
    Вы можете скачивать файлы