Anonymous, добрый день, присоединяйтесь к нам в Telegram!, здесь всегда актуальный адрес сайта, оперативная поддержка и многое другое!

>

5.6

iTunes

7.4

iTunes

7.9

MVO

1

7.7

1 сезон

6.8

iTunes

7.3

1 сезон

13

6.7

1 сезон

8.3

RePack

30

ULTIMATE

pack

9.9

Лицензия

ВАЖНО

ИГРА 18+

pack

7.3

RePack

MK11

7.7

RePack

jed

7.8

RePack

fifa19

8.5

RePack

RDR2

RePack

NEED FOR SPEED™ PAYBACK

4 сезон

9 сезон

Бесстыжие 9 сезон

Все сериалы

все сериалы на PB.wtf

RePack

FAR CRY 5

Anonymous, добрый день, мы катастрофически не успеваем собрать деньги на оплату серверов, помогите нам пожалуйста 5,10,15р., для нас важна любая помощь . В качестве благодарности мы отключим Вам всю рекламу на сайте (укажите свой ник в строку Ваше имя)!

×
  
Magnet ссылка

Время / Old (М. Найт Шьямалан) [2021, Триллер, драма, фантастика, BDRip 720p] DUB [iTunes ] pb.wtf

Время через торрент pb.wtf

Раздают: 18 [ 1 MB/s ]
Размер: 6.28 GB | Добавлен: 6 д. назад | Торрент скачан:120 раз
Смотреть онлайн Время | Скачать    Ребята, помогите собрать деньги на оплату серверов!!!

11-10-2021 10:07 Время Скачать торрент  

Время | Old
«Жизнь — лишь вопрос времени»
  • Год выпуска: 2021
  • Страна: США
  • Жанр: Триллер, драма, фантастика
  • Продолжительность: 01:48:27
  • Перевод: Профессиональный (полное дублирование) | iTunes
  • Режиссер: М. Найт Шьямалан
    rating
  • В ролях: Гаэль Гарсиа Берналь, Вики Крипс, Руфус Сьюэлл, Кен Люн, Никки Амука-Бёрд, Эбби Ли, Аарон Пьер, Алекс Вулф, Эмбет Дэвидц, Элайза Сканлен
  • Описание: Отправившись в отпуск на тропический остров, семья с двумя детьми решает последовать совету менеджера отеля и посетить прекрасный уединенный пляж. Кроме них на пляже оказываются и другие постояльцы: семейство с маленькой дочкой, пара среднего возраста и популярный репер. Но вскоре расслабленный отдых сменяется паникой, когда компания обнаруживает труп и замечает, что дети вдруг начали очень быстро взрослеть.

  • Качество: BDRip 720p
  • Формат: MKV
  • Видео кодек: AVC
  • Аудио кодек: AC3
  • Видео: AVC, 1280 x 536, 23.976 fps, 7267 kbps
  • Аудио 1: Русский: AC3, 48 kHz, 6 ch, 384 kbps (iTunes)
  • Аудио 2: Английский: AC3, 48 kHz, 6 ch, 640 kbps (Оригинал)
  • Субтитры: Русские (Forced, full), английские

Код:

General
Unique ID : 259476289550533610605633149133679869489 (0xC33550CA88152A81B5F534AC4869BE31)
Complete name : E:VideoOld.2021.BDRip.720p.seleZen.mkv
Format : Matroska
Format version : Version 4
File size : 6.28 GiB
Duration : 1 h 48 min
Overall bit rate : 8 293 kb/s
Movie name : Old 2021 from seleZen
Encoded date : UTC 2021-10-13 13:29:18
Writing application : mkvmerge v59.0.0 ('Shining Star') 64-bit
Writing library : libebml v1.4.2 + libmatroska v1.6.4

Video
ID : 1
Format : AVC
Format/Info : Advanced Video Codec
Format profile : High@L4.1
Format settings : CABAC / 12 Ref Frames
Format settings, CABAC : Yes
Format settings, Reference frames : 12 frames
Codec ID : V_MPEG4/ISO/AVC
Duration : 1 h 48 min
Bit rate : 7 267 kb/s
Width : 1 280 pixels
Height : 536 pixels
Display aspect ratio : 2.40:1
Frame rate mode : Constant
Frame rate : 23.976 (24000/1001) FPS
Color space : YUV
Chroma subsampling : 4:2:0
Bit depth : 8 bits
Scan type : Progressive
Bits/(Pixel*Frame) : 0.442
Stream size : 5.51 GiB (88%)
Title : iFT
Writing library : x264 core 163 r3059+79M ~ Encoded by Mocunaman in Portugal
Encoding settings : cabac=1 / ref=12 / deblock=1:-3:-3 / analyse=0x3:0x113 / me=umh / subme=11 / psy=1 / fade_compensate=0.00 / psy_rd=1.03:0.00 / mixed_ref=1 / me_range=48 / chroma_me=1 / trellis=2 / 8x8dct=1 / cqm=0 / deadzone=21,11 / fast_pskip=0 / chroma_qp_offset=-2 / threads=17 / lookahead_threads=4 / sliced_threads=0 / nr=0 / decimate=0 / interlaced=0 / bluray_compat=0 / constrained_intra=0 / fgo=0 / bframes=10 / b_pyramid=2 / b_adapt=2 / b_bias=0 / direct=3 / weightb=1 / open_gop=0 / weightp=2 / keyint=250 / keyint_min=23 / scenecut=40 / intra_refresh=0 / rc_lookahead=60 / rc=crf / mbtree=0 / crf=15.8000 / qcomp=0.60 / qpmin=0:0:0 / qpmax=69:69:69 / qpstep=4 / vbv_maxrate=62500 / vbv_bufsize=78125 / crf_max=0.0 / nal_hrd=none / filler=0 / ip_ratio=1.30 / pb_ratio=1.20 / aq=3:0.78 / aq-sensitivity=10.00 / aq-factor=1.00:1.00:1.00 / aq2=0 / aq3=0 / zones=0,1246,crf=13.8/10673,14515,crf=14.8/22339,22819,crf=15.3/27003,27380,crf=15.3/44520,45408,crf=14.8/96624,120120,crf=14.8/126813,128709,crf=15.3/141487,142602,crf=15.3
Language : English
Default : Yes
Forced : No
Color range : Limited
Color primaries : BT.709
Transfer characteristics : BT.709
Matrix coefficients : BT.709

Audio #1
ID : 2
Format : AC-3
Format/Info : Audio Coding 3
Commercial name : Dolby Digital
Codec ID : A_AC3
Duration : 1 h 48 min
Bit rate mode : Constant
Bit rate : 384 kb/s
Channel(s) : 6 channels
Channel layout : L R C LFE Ls Rs
Sampling rate : 48.0 kHz
Frame rate : 31.250 FPS (1536 SPF)
Compression mode : Lossy
Stream size : 298 MiB (5%)
Title : iTunes
Language : Russian
Service kind : Complete Main
Default : Yes
Forced : Yes

Audio #2
ID : 3
Format : AC-3
Format/Info : Audio Coding 3
Commercial name : Dolby Digital
Codec ID : A_AC3
Duration : 1 h 48 min
Bit rate mode : Constant
Bit rate : 640 kb/s
Channel(s) : 6 channels
Channel layout : L R C LFE Ls Rs
Sampling rate : 48.0 kHz
Frame rate : 31.250 FPS (1536 SPF)
Compression mode : Lossy
Stream size : 496 MiB (8%)
Title : Original
Language : English
Service kind : Complete Main
Default : No
Forced : No

Text #1
ID : 4
Format : UTF-8
Codec ID : S_TEXT/UTF8
Codec ID/Info : UTF-8 Plain Text
Duration : 1 h 42 min
Bit rate : 0 b/s
Count of elements : 4
Stream size : 93.0 Bytes (0%)
Title : Forced
Language : Russian
Default : Yes
Forced : Yes

Text #2
ID : 5
Format : UTF-8
Codec ID : S_TEXT/UTF8
Codec ID/Info : UTF-8 Plain Text
Duration : 1 h 42 min
Bit rate : 81 b/s
Count of elements : 1290
Stream size : 60.8 KiB (0%)
Title : Full
Language : Russian
Default : No
Forced : No

Text #3
ID : 6
Format : UTF-8
Codec ID : S_TEXT/UTF8
Codec ID/Info : UTF-8 Plain Text
Duration : 1 h 39 min
Bit rate : 52 b/s
Count of elements : 1201
Stream size : 38.3 KiB (0%)
Title : Full
Language : English
Default : No
Forced : No

Text #4
ID : 7
Format : UTF-8
Codec ID : S_TEXT/UTF8
Codec ID/Info : UTF-8 Plain Text
Duration : 1 h 43 min
Bit rate : 58 b/s
Count of elements : 1415
Stream size : 44.7 KiB (0%)
Title : SDH
Language : English
Default : No
Forced : No

Menu
00:00:00.000 : Chapter 01
00:05:50.100 : Chapter 02
00:13:46.617 : Chapter 03
00:18:35.448 : Chapter 04
00:23:05.676 : Chapter 05
00:28:33.045 : Chapter 06
00:32:43.420 : Chapter 07
00:38:01.654 : Chapter 08
00:43:25.895 : Chapter 09
00:47:54.371 : Chapter 10
00:53:05.808 : Chapter 11
01:01:32.939 : Chapter 12
01:05:11.366 : Chapter 13
01:08:52.337 : Chapter 14
01:12:44.068 : Chapter 15
01:18:59.568 : Chapter 16
01:23:29.796 : Chapter 17
01:29:13.223 : Chapter 18
01:34:26.619 : Chapter 19
01:41:18.281 : Chapter 20


скриншот   скриншот   скриншот   скриншот  
pb.wtf



Скачать Время через торрент https://pic1.kartinco.top/new/img/2021-10/13/7soethja26o4k6ruxeg092d5b.png Скачать, смотреть онлайн Время бесплантно в хорошем качестве Описание: Отправившись в отпуск на тропический остров, семья с двумя детьми решает последовать совету менеджера отеля и посетить прекрасный ... 9.8 10 9
Info! Золотая раздача, скачанное не засчитывается.
Торрент: Зарегистрирован [2021-10-13 16:14] · скачан: 120 раз
Статус: √ проверено
Размер: 6.28 GB
Как cкачать? Как скачать Время через торрент | UTorrent

% Раздел Тема Автор DL S | L
Ultra HD (UHD: 2K, 4K, 8K) [ 60.99 GB ] Время / Old [2021 UHD BDRemux 2160p ] bober100 Скачать
2 | 2
Ultra HD (UHD: 2K, 4K, 8K) — видео сверхвысокой чёткости [ 68.61 GB ] Время / Old [2021 UHD BDRemux 2160p ] bober100 Скачать
3 | 7
Фильмы (Blu-ray, BD-Remux, HDDVD) [ 25.73 GB ] Время / Old [2021 BD Remux 1080p] bober100 Скачать
8 | 2
Фильмы с украинским озвучиванием [ 12.93 GB ] Время / Час / Old [2021 BDRip 1080p] [Ukr DUB] killermax2013 Скачать
4 | 0
Фильмы (HD 720p, 1080p) (48-60 fps) [ 3.1 GB ] Время / Old [2021 WEB-DLRip - HEVC 1080p 10 bit 60 FPS DUB] dd2d3 Скачать
20 | 0
Фильмы 2021 [DVDrip, WEB-DLRip, HDrip] (DUB, MVO) [ 1.41 GB ] Время / Old [2021 BDRip] - Twi7ter Скачать
158 | 11
Фильмы [HD 720p, 1080p] (Хороший звук DUB, MVO) [ 12.93 GB ] Время / Old [2021 BDRip 1080p] killermax2013 Скачать
39 | 1


Последний раз редактировалось: -=BIGBOSS=- (2021-10-13 16:13), всего редактировалось 1 раз

28-11-2019 20:33  

Отключить всю рекламу на сайте

11-10-2021 12:21 Время Скачать торрент  

Отличный конец, но до него еще надо досмотреть, потому что фильм шляпа. У меня так у же было с фильмом Другие.pb.wtf



11-10-2021 13:37 Время Скачать торрент  

фильм - гумно и точкаpb.wtf



11-10-2021 16:09 Время Скачать торрент  

игра актёров совсем туфта.
но задумка на высоте, красивые порой съёмки. смотрится интересноpb.wtf



12-10-2021 07:38 Время Скачать торрент  

Топик был перенесен из форума Оформление раздач (Кино, Видео и ТВ) в форум Фильмы [HD 720p, 1080p] (Звук Cam, VO, DVO)


bober100pb.wtf



13-10-2021 20:29 Время Скачать торрент  

хрень какая то.один раз с натяжкой посмотреть можно.pb.wtf



14-10-2021 03:17 Время Скачать торрент  

Топик был перенесен из форума Фильмы [HD 720p, 1080p] (Звук Cam, VO, DVO) в форум Фильмы [HD 720p, 1080p] (Хороший звук DUB, MVO)


Enigma2010pb.wtf



    Дорогой пользователь! Огромная просьба, поблагодарите релизера, оцените раздачу и оставьте свои комментарий, если Вы скачали Время через торрент бесплатно!
    Комментировать посты могут только пользователи прошедшие не сложную регистрацию
    Показать сообщения:    

    Время через торрент
    Скачать бесплатно Время
    Время скачать торрент
    Время смотреть онлайн
    Cкачать фильм Время бесплатно
    Время скачать торрент в хорошем качестве
    Время смотреть онлайн бесплатно в хорошем качестве


    Вы не можете начинать темы
    Вы не можете отвечать на сообщения
    Вы не можете редактировать свои сообщения
    Вы не можете удалять свои сообщения
    Вы не можете голосовать в опросах
    Вы не можете прикреплять файлы к сообщениям
    Вы можете скачивать файлы