Anonymous, добрый вечер, присоединяйтесь к нам в Telegram!, здесь всегда актуальный адрес сайта, оперативная поддержка и многое другое!

>

5.6

iTunes

7.4

iTunes

7.9

MVO

1

7.7

1 сезон

6.8

iTunes

7.3

1 сезон

13

6.7

1 сезон

8.3

RePack

30

PREMIUM

pack

9.9

Лицензия

ВАЖНО

ИГРА 18+

pack

7.3

RePack

MK11

7.7

RePack

jed

7.8

RePack

fifa19

8.5

RePack

RDR2

RePack

NEED FOR SPEED™ PAYBACK

4 сезон

9 сезон

Бесстыжие 9 сезон

Все сериалы

все сериалы на PB.wtf

RePack

FAR CRY 5

Anonymous, добрый вечер, мы катастрофически не успеваем собрать деньги на оплату серверов, помогите нам пожалуйста 5,10,15р., для нас важна любая помощь . В качестве благодарности мы отключим Вам всю рекламу на сайте (укажите свой ник в строку Ваше имя)!

×
  
Magnet ссылка

Время / Old (М. Найт Шьямалан) [2021, Триллер, драма, фантастика, WEB-DLRip - HEVC 1080p 10 bit 60 FPS, DUB] pb.wtf

Время через торрент pb.wtf

Раздают: 19 [ 66 KB/s ]
Размер: 3.1 GB | Добавлен: 4 д. назад | Торрент скачан:114 раз
Смотреть онлайн Время | Скачать    Ребята, помогите собрать деньги на оплату серверов!!!

11-10-2021 13:14 Время Скачать торрент  

Old
«Жизнь — лишь вопрос времени»


Год выпуска: 2021
Страна: США
Жанр: триллер, драма, фантастика

Продолжительность: 01:48:26
Перевод: Дублированный | iTunes
Субтитры: русские | iTunes

Режиссер: М. Найт Шьямалан
В ролях: Гаэль Гарсиа Берналь, Вики Крипс, Руфус Сьюэлл, Кен Люн, Никки Амука-Бёрд, Эбби Ли, Аарон Пьер, Алекс Вулф, Эмбет Дэвидц, Элайза Сканлен

Описание:
Отправившись в отпуск на тропический остров, семья с двумя детьми решает последовать совету менеджера отеля и посетить прекрасный уединенный пляж. Кроме них на пляже оказываются и другие постояльцы: семейство с маленькой дочкой, пара среднего возраста и популярный репер. Но вскоре расслабленный отдых сменяется паникой, когда компания обнаруживает труп и замечает, что дети вдруг начали очень быстро взрослеть.

Мировая премьера: 21 июля 2021


Качество: WeB-DLRip 1080p Rip by DD2D3
Формат: MKV
Видео: V_MPEGH/ISO/HEVC; 1920x804 (2.40:1); 3704 Kbps; 59,940 fps; 0,040 bpp
Аудио: русский; AC3; 384 Kbps; CBR; 2 ch ||
Навигация по главам: есть



Общее
Уникальный идентификатор : 237078357197924182065489533230264261895 (0xB25BA1777ABC6C35AD153941C1CA9D07)
Полное имя : D:\Old (2021) WEB-DLRip - HEVC 1080p 10 bit 60 FPS.mkv
Формат : Matroska
Версия формата : Version 2
Размер файла : 3,10 Гбайт
Продолжительность : 1 ч. 48 м.
Общий поток : 4 097 Кбит/сек
Название фильма : Rip by from DD2D3
Дата кодирования : UTC 2021-10-15 18:48:49
Программа кодирования : mkvmerge v7.8.0 ('River Man') 32bit built on Apr 3 2015 12:11:22
Библиотека кодирования : libebml v1.3.1 + libmatroska v1.4.2
Attachments : poster

Видео
Идентификатор : 1
Формат : HEVC
Формат/Информация : High Efficiency Video Coding
Профиль формата : Main@L5.1@Main
Идентификатор кодека : V_MPEGH/ISO/HEVC
Продолжительность : 1 ч. 48 м.
Битрейт : 3 631 Кбит/сек
Ширина : 1 920 пикселей
Высота : 804 пикселя
Соотношение сторон : 2,40:1
Режим частоты кадров : Постоянный
Частота кадров : 59,940 (60000/1001) кадров/сек
Цветовое пространство : YUV
Субдискретизация насыщенности : 4:2:0
Битовая глубина : 8 бит
Бит/(Пиксели*Кадры) : 0.039
Размер потока : 2,75 Гбайт (89%)
Библиотека кодирования : x265 3.5+10-82786fccc:[Windows][GCC 11.1.0][64 bit] 8bit
Настройки программы : cpuid=1111039 / frame-threads=16 / numa-pools=4 / wpp / pmode / pme / no-psnr / no-ssim / log-level=2 / input-csp=1 / input-res=1920x804 / interlace=0 / total-frames=390011 / level-idc=51 / high-tier=1 / uhd-bd=0 / ref=3 / no-allow-non-conformance / no-repeat-headers / annexb / no-aud / no-eob / no-eos / no-hrd / info / hash=0 / no-temporal-layers / open-gop / min-keyint=24 / keyint=240 / gop-lookahead=0 / bframes=4 / b-adapt=2 / b-pyramid / bframe-bias=0 / rc-lookahead=20 / lookahead-slices=5 / scenecut=40 / hist-scenecut=0 / radl=0 / no-splice / no-intra-refresh / ctu=64 / min-cu-size=8 / no-rect / no-amp / max-tu-size=32 / tu-inter-depth=1 / tu-intra-depth=1 / limit-tu=0 / rdoq-level=0 / dynamic-rd=0.00 / no-ssim-rd / signhide / no-tskip / nr-intra=0 / nr-inter=0 / no-constrained-intra / strong-intra-smoothing / max-merge=3 / limit-refs=1 / no-limit-modes / me=1 / subme=2 / merange=57 / temporal-mvp / no-frame-dup / no-hme / weightp / no-weightb / no-analyze-src-pics / deblock=0:0 / sao / no-sao-non-deblock / rd=3 / selective-sao=4 / early-skip / rskip / no-fast-intra / no-tskip-fast / no-cu-lossless / b-intra / no-splitrd-skip / rdpenalty=0 / psy-rd=0.40 / psy-rdoq=0.00 / no-rd-refine / no-lossless / cbqpoffs=-2 / crqpoffs=-2 / rc=abr / bitrate=3700 / qcomp=0.72 / qpstep=4 / stats-write=0 / stats-read=2 / cplxblur=20.0 / qblur=0.5 / ipratio=1.40 / pbratio=1.30 / aq-mode=2 / aq-strength=1.00 / cutree / zone-count=0 / no-strict-cbr / qg-size=32 / no-rc-grain / qpmax=69 / qpmin=0 / no-const-vbv / sar=1 / overscan=0 / videoformat=5 / range=0 / colorprim=1 / transfer=1 / colormatrix=1 / chromaloc=0 / display-window=0 / cll=0,0 / min-luma=0 / max-luma=255 / log2-max-poc-lsb=8 / vui-timing-info / vui-hrd-info / slices=1 / no-opt-qp-pps / no-opt-ref-list-length-pps / no-multi-pass-opt-rps / scenecut-bias=0.05 / hist-threshold=0.03 / no-opt-cu-delta-qp / no-aq-motion / no-hdr10 / no-hdr10-opt / no-dhdr10-opt / no-idr-recovery-sei / analysis-reuse-level=0 / analysis-save-reuse-level=0 / analysis-load-reuse-level=0 / scale-factor=0 / refine-intra=0 / refine-inter=0 / refine-mv=1 / refine-ctu-distortion=0 / no-limit-sao / ctu-info=0 / no-lowpass-dct / refine-analysis-type=0 / copy-pic=1 / max-ausize-factor=1.0 / no-dynamic-refine / no-single-sei / no-hevc-aq / no-svt / no-field / qp-adaptation-range=1.00 / scenecut-aware-qp=0conformance-window-offsets / right=0 / bottom=0 / decoder-max-rate=0 / no-vbv-live-multi-pass
Default : Да
Forced : Нет
Цветовой диапазон : Limited
Основные цвета : BT.709
Характеристики трансфера : BT.709
Коэффициенты матрицы : BT.709
Statistics Tags Issue : mkvmerge v10.0.0 ('To Drown In You') 32bit 2021-10-11 12:39:59 / mkvmerge v7.8.0 ('River Man') 32bit built on Apr 3 2015 12:11:22 2021-10-15 18:48:49
FromStats_BitRate : 3704791
FromStats_Duration : 01:48:26.683000000
FromStats_FrameCount : 390011
FromStats_StreamSize : 3013238163

Аудио
Идентификатор : 2
Формат : AC-3
Формат/Информация : Audio Coding 3
Коммерческое название : Dolby Digital
Идентификатор кодека : A_AC3
Продолжительность : 1 ч. 48 м.
Вид битрейта : Постоянный
Битрейт : 384 Кбит/сек
Каналы : 6 каналов
Channel layout : L R C LFE Ls Rs
Частота : 48,0 КГц
Частота кадров : 31,250 кадров/сек (1536 SPF)
Метод сжатия : С потерями
Размер потока : 298 Мбайт (9%)
Заголовок : iTunes
Язык : Russian
Service kind : Complete Main
Default : Да
Forced : Да

Текст
Идентификатор : 3
Формат : UTF-8
Идентификатор кодека : S_TEXT/UTF8
Идентификатор кодека/Информация : UTF-8 Plain Text
Заголовок : Full
Язык : Russian
Default : Нет
Forced : Нет

Меню
00:00:00.000 : en:Chapter 01
00:05:50.100 : en:Chapter 02
00:13:46.617 : en:Chapter 03
00:18:35.448 : en:Chapter 04
00:23:05.676 : en:Chapter 05
00:28:33.045 : en:Chapter 06
00:32:43.420 : en:Chapter 07
00:38:01.654 : en:Chapter 08
00:43:25.895 : en:Chapter 09
00:47:54.371 : en:Chapter 10
00:53:05.808 : en:Chapter 11
01:01:32.939 : en:Chapter 12
01:05:11.366 : en:Chapter 13
01:08:52.337 : en:Chapter 14
01:12:44.068 : en:Chapter 15
01:18:59.568 : en:Chapter 16
01:23:29.796 : en:Chapter 17
01:29:13.223 : en:Chapter 18
01:34:26.619 : en:Chapter 19
01:41:18.281 : en:Chapter 20
скриншот  скриншот  скриншот  


© Оформление by DD2D3 pb.wtf



Скачать Время через торрент http://images.vfl.ru/ii/1633957054/c88a268f/36209974.jpg Скачать, смотреть онлайн Время бесплантно в хорошем качестве Описание: Отправившись в отпуск на тропический остров, семья с двумя детьми решает последовать совету менеджера отеля и посетить прекрасный ... 10 10 9
Info! Золотая раздача, скачанное не засчитывается.
Торрент: Зарегистрирован [2021-10-15 19:48] · скачан: 114 раз
Статус: √ проверено
Размер: 3.1 GB
Как cкачать? Как скачать Время через торрент | UTorrent

% Раздел Тема Автор DL S | L
Ultra HD (UHD: 2K, 4K, 8K) [ 60.99 GB ] Время / Old [2021 UHD BDRemux 2160p ] bober100 Скачать
2 | 2
Ultra HD (UHD: 2K, 4K, 8K) — видео сверхвысокой чёткости [ 68.61 GB ] Время / Old [2021 UHD BDRemux 2160p ] bober100 Скачать
5 | 4
Фильмы (Blu-ray, BD-Remux, HDDVD) [ 25.73 GB ] Время / Old [2021 BD Remux 1080p] bober100 Скачать
9 | 1
Фильмы с украинским озвучиванием [ 12.93 GB ] Время / Час / Old [2021 BDRip 1080p] [Ukr DUB] killermax2013 Скачать
4 | 0
Фильмы 2021 [DVDrip, WEB-DLRip, HDrip] (DUB, MVO) [ 1.41 GB ] Время / Old [2021 BDRip] - Twi7ter Скачать
162 | 9
Фильмы [HD 720p, 1080p] (Хороший звук DUB, MVO) [ 12.93 GB ] Время / Old [2021 BDRip 1080p] killermax2013 Скачать
40 | 2
Фильмы [HD 720p, 1080p] (Хороший звук DUB, MVO) [ 6.28 GB ] Время / Old [2021 BDRip 720p] DUB [ ] -=BIGBOSS=- Скачать
20 | 0


Последний раз редактировалось: dd2d3 (2021-10-15 19:48), всего редактировалось 1 раз

28-11-2019 20:33  

Отключить всю рекламу на сайте

13-10-2021 19:57 Время Скачать торрент  


Большое Спасибо dd2d3!!!
Как всегда помогу с раздачей!
Спасибо Друг, что ты есть!

Best Regards, Your V&S!
pb.wtf



15-10-2021 19:49 Время Скачать торрент  

Обновил

Перевод: Дублированный | iTunes
Субтитры: русские | iTunespb.wtf



15-10-2021 21:03 Время Скачать торрент  

супер фильмpb.wtf



17-10-2021 20:54 Время Скачать торрент  

Нудновато. На разок, с перекурами потянет.pb.wtf



    Дорогой пользователь! Огромная просьба, поблагодарите релизера, оцените раздачу и оставьте свои комментарий, если Вы скачали Время через торрент бесплатно!
    Комментировать посты могут только пользователи прошедшие не сложную регистрацию
    Показать сообщения:    

    Время через торрент
    Скачать бесплатно Время
    Время скачать торрент
    Время смотреть онлайн
    Cкачать фильм Время бесплатно
    Время скачать торрент в хорошем качестве
    Время смотреть онлайн бесплатно в хорошем качестве


    Вы не можете начинать темы
    Вы не можете отвечать на сообщения
    Вы не можете редактировать свои сообщения
    Вы не можете удалять свои сообщения
    Вы не можете голосовать в опросах
    Вы не можете прикреплять файлы к сообщениям
    Вы можете скачивать файлы