Anonymous, доброй ночи, присоединяйтесь к нам в Telegram!, здесь всегда актуальный адрес сайта, оперативная поддержка и многое другое!

>

5.6

iTunes

7.4

MVO

5.7

MVO

1

7.7

1 сезон

6.8

iTunes

7.3

1 сезон

13

6.7

1 сезон

8.3

RePack

30

ULTIMATE

pack

9.9

Лицензия

ВАЖНО

ИГРА 18+

pack

7.3

RePack

MK11

7.7

RePack

jed

7.8

RePack

fifa19

8.5

RePack

RDR2

RePack

NEED FOR SPEED™ PAYBACK

4 сезон

9 сезон

Бесстыжие 9 сезон

Все сериалы

все сериалы на PB.wtf

RePack

FAR CRY 5

Anonymous, доброй ночи, мы катастрофически не успеваем собрать деньги на оплату серверов, помогите нам пожалуйста 5,10,15р., для нас важна любая помощь . В качестве благодарности мы отключим Вам всю рекламу на сайте (укажите свой ник в строку Ваше имя)!

×
  
Magnet ссылка

Инсомния / Сезон: 1 / Серии: 1-3 из 8 (Ольга Френкель) [2021 г., Драма, триллер, детектив, мистика, WEBRip] pb.wtf

Инсомния через торрент pb.wtf

Раздают: 4 [ 56 KB/s ] Качают: 4 [ 0 KB/s ]
Размер: 1.99 GB | Добавлен: 1 д. 4 ч. назад | Торрент скачан:7 раз
Смотреть онлайн Инсомния | Скачать    Ребята, помогите собрать деньги на оплату серверов!!!

11-10-2021 23:00 Инсомния Скачать торрент  

Инсомния
Год выпуска: 2021
Страна: Россия
Студия: 1-2-3 Production, "Косфильм"
Жанр:Драма, триллер, детектив, мистика
Продолжительность: ~ 00:45:00
Субтитры: Отсутствуют

Режиссер: Ольга Френкель



В ролях:
Гоша Куценко, Ирина Старшенбаум, Мария Миронова (II), Сергей Сосновский, Александр Робак, Кирилл Кяро, Никита Ефремов, Роза Хайруллина, Игорь Миркурбанов, Полина Макарчик, Полина Гухман, Татьяна Ратникова, Даниил Бадаев, Светлана Коновалова (III)

Описание:
Юрию 43 года. Он убежденный агностик, способный рационально объяснить абсолютно все — кроме своей бессонницы. Помогая своим клиентам справиться с самыми запущенными проблемами, уникальный психиатр-гипнотерапевт не в силах помочь себе избавиться от ночных кошмаров. В них он видит бывшую жену, покончившую с собой много лет назад...

Качество: WEBRip
Формат: AVI
Видео кодек: XviD
Аудио кодек: AC3
Видео: 1580 Кбит/сек, 720*400 (16:9), в 25,000 кадров/сек, MPEG-4 Visual (XviD)
Аудио: 192 Кбит/сек, 48,0 КГц, 16 бит, 2 канала, AC-3 - (без цензуры, 18+). Внимание! Присутствует ненормативная лексика.
Общее
Полное имя : G:\Инсомния.(2021).WEBRip.Files-x\01.Insomniya.(2021).WEBRip.Files-x.avi
Формат : AVI
Формат/Информация : Audio Video Interleave
Размер файла : 710 Мбайт
Продолжительность : 55 м. 43 с.
Общий поток : 1781 Кбит/сек
Программа кодирования : VirtualDubMod 1.5.10.3 | www.virtualdub-fr.org || (build 2550/release)
Библиотека кодирования : VirtualDubMod build 2550/release

Видео
Идентификатор : 0
Формат : MPEG-4 Visual
Профиль формата : Advanced Simple@L5
Настройки формата : BVOP1 / Custom Matrix
Параметр BVOP формата : 1
Параметр QPel формата : Нет
Параметр GMC формата : Без точки перехода
Параметр матрицы формата : Выборочная
Идентификатор кодека : XVID
Идентификатор кодека/Подсказка : XviD
Продолжительность : 55 м. 43 с.
Битрейт : 1580 Кбит/сек
Ширина : 720 пикселей
Высота : 400 пикселей
Соотношение сторон : 16:9
Частота кадров : 25,000 кадров/сек
Цветовое пространство : YUV
Субдискретизация насыщенности : 4:2:0
Битовая глубина : 8 бит
Тип развёртки : Прогрессивная
Метод сжатия : С потерями
Бит/(Пиксели*Кадры) : 0.219
Размер потока : 630 Мбайт (89%)
Библиотека кодирования : XviD 73

Аудио
Идентификатор : 1
Формат : AC-3
Формат/Информация : Audio Coding 3
Коммерческое название : Dolby Digital
Идентификатор кодека : 2000
Продолжительность : 55 м. 43 с.
Вид битрейта : Постоянный
Битрейт : 192 Кбит/сек
Каналы : 2 канала
ChannelLayout : L R
Частота : 48,0 КГц
Частота кадров : 31,250 кадров/сек (1536 SPF)
Битовая глубина : 16 бит
Метод сжатия : С потерями
Размер потока : 76,5 Мбайт (11%)
Выравнивание : Разделение по промежуткам
Продолжительность промежутка : 40 мс. (1,00 видеокадр)
Время предзагрузки промежутка : 500 мс.
ServiceKind/String : Complete Main
Внимание! Раздача ведётся путём добавления новых серий; при каждом добавлении создаётся новый торрент. Чтобы начать докачку новой серии, пользователям необходимо сделать следующее:
(1) остановить скачивание,
(2) удалить старый торрент у себя из клиента (старые серии удалять не надо),
(3) скачать новый торрент и запустить его у себя в клиенте вместо старого, при этом указать клиенту путь в старую папку куда и должно происходить скачивание новых серий.

Ваш клиент при этом должен произвести хеширование (проверку) старой папки (если не производит сам - помогите ему сделать это), и будет докачивать только те серии которых у вас ещё нет. Старые серии при этом не удаляются, а продолжают раздаваться!

Eсли вы уже удалили старые серии, то предотвратить повторную закачку старых серий можно, отжав галочку в соответствующих местах при запуске нового торрента. По возможности, желательно не удалять старые серии как можно дольше чтобы релизёр не столько продолжал раздавать старые серии, а смог сконцентрироваться на новых.


Скриншоты:
скриншот   скриншот   скриншот   скриншот  скриншот   скриншот   скриншот   
скриншот  
pb.wtf



Скачать Инсомния через торрент https://pic1.kartinco.top/new/img/2021-10/12/gdmspmsa5d384jadaek74d4tu.jpg Скачать, смотреть онлайн Инсомния бесплантно в хорошем качестве Описание: Юрию 43 года. Он убежденный агностик, способный рационально объяснить абсолютно все — кроме своей бессонницы. Помогая своим ... 10 10 2
Торрент: Зарегистрирован [2021-10-14 22:30] · скачан: 7 раз
Статус: не проверено
Размер: 1.99 GB
Как cкачать? Как скачать Инсомния через торрент | UTorrent

% Раздел Тема Автор DL S | L
TNT serials [ 2.01 GB ] Инсомния / Сезон: 1 / Серии: 1-3 из 8 [2021 WEBRip-AVC] bober100 Скачать
4 | 0
TNT serials [ 5.17 GB ] Инсомния / Сезон: 1 / Серии: 1-3 из 8 [2021 WEBRip 1080p] bober100 Скачать
4 | 1


Последний раз редактировалось: GEKADOL (2021-10-14 22:30), всего редактировалось 3 раз(а)

28-11-2019 20:33  

Отключить всю рекламу на сайте

12-10-2021 04:58 Инсомния Скачать торрент  

Как можно быть убеждённым агностиком? Атеистом да, но агностиком?pb.wtf



    Дорогой пользователь! Огромная просьба, поблагодарите релизера, оцените раздачу и оставьте свои комментарий, если Вы скачали Инсомния через торрент бесплатно!
    Комментировать посты могут только пользователи прошедшие не сложную регистрацию
    Показать сообщения:    

    Инсомния через торрент
    Скачать бесплатно Инсомния
    Инсомния скачать торрент
    Инсомния смотреть онлайн
    Cкачать фильм Инсомния бесплатно
    Инсомния скачать торрент в хорошем качестве
    Инсомния смотреть онлайн бесплатно в хорошем качестве


    Вы не можете начинать темы
    Вы не можете отвечать на сообщения
    Вы не можете редактировать свои сообщения
    Вы не можете удалять свои сообщения
    Вы не можете голосовать в опросах
    Вы не можете прикреплять файлы к сообщениям
    Вы можете скачивать файлы