Anonymous, добрый вечер, присоединяйтесь к нам в Telegram!, здесь всегда актуальный адрес сайта, оперативная поддержка и многое другое!

>

5.5

iTunes

7.4

iTunes

7.9

iTunes

1

7.7

1 сезон

6.8

iTunes

7.3

1 сезон

13

6.7

1 сезон

8.3

RePack

30

ULTIMATE

pack

9.9

Лицензия

ВАЖНО

ИГРА 18+

pack

7.3

RePack

MK11

7.7

RePack

jed

7.8

RePack

fifa19

8.5

RePack

RDR2

RePack

NEED FOR SPEED™ PAYBACK

4 сезон

9 сезон

Бесстыжие 9 сезон

Все сериалы

все сериалы на PB.wtf

RePack

FAR CRY 5

Anonymous, добрый вечер, мы катастрофически не успеваем собрать деньги на оплату серверов, помогите нам пожалуйста 5,10,15р., для нас важна любая помощь . В качестве благодарности мы отключим Вам всю рекламу на сайте (укажите свой ник в строку Ваше имя)!

×
  
Magnet ссылка

Жена олигарха / Сезон: 1 / Серии: 1-9 из 17 (Мария Кравченко (II)) [2021, Комедия, WEB-DLRip] pb.wtf

Жена олигарха через торрент pb.wtf

Раздают: 5 [ 23 KB/s ] Качают: 8 [ 0 KB/s ]
Размер: 3.08 GB | Добавлен: 4 д. назад | Торрент скачан:12 раз
Смотреть онлайн Жена олигарха | Скачать    Ребята, помогите собрать деньги на оплату серверов!!!

12-10-2021 04:20 Жена олигарха Скачать торрент  

Жена олигарха
Год выпуска: 2021
Страна: Россия
Жанр: Комедия
Продолжительность: ~ 00:25:00
Перевод: Не требуется
Субтитры: отсутствуют

Режиссер: Мария Кравченко (II)



В ролях: Елена Подкаминская, Маргарита Дьяченкова, Кай Алекс Гетц, Игорь Верник, Антон Филипенко, Владимир Гостюхин, Алексей Маклаков, Александр Дьяченко, Александр Обласов, Даниил Киселев, Константин Похмелов, Евгения Капралова, Алёна Ицкова, Сергей Марухин, Юлия Кубина, Александр Денисенко (II), Максим Арнаутов, Вадим Соснин, Олег Димидкин, Евгения Липская, Евгений Березовский, Наталия Поборцева, Михаил Попов (VI), Ольга Бузова, Никита Джигурда

Описание: Жизнь Альбины меняется в один миг: под угрозой ареста муж-олигарх бросает её, прихватив с собой все деньги. Всё, что осталось от супруга, — двое детей и российская фабрика на грани банкротства. Теперь Альбина вынуждена забыть о роскошной жизни в лондонском особняке и вспомнить то, что ей говорили на бизнес-курсах. Только начинать жизнь с чистого листа в провинциальном городке без гроша в кармане её никто не учил.

Качество: WEB-DLRip
Формат: AVI

Видео: XviD, 720x400, ~ 1700 Кбит/с, 0.235 bit/pixel, 25 Кадр/с
Аудио: 48.0 kHz, AC3 Dolby Digital, 2/0 (L,R) ch, ~ 192 kbps
скриншот  скриншот  скриншот  скриншот  

Общее
Полное имя : D:\Zhena.oligarha.2021.WEB-DLRip.25Kuzmich\Zhena.oligarha.e01.WEB-DLRip.25Kuzmich.avi
Формат : AVI
Формат/Информация : Audio Video Interleave
Размер файла : 350 Мбайт
Продолжительность : 25 м. 48 с.
Общий поток : 1 897 Кбит/сек
Программа кодирования : VirtualDubMod 1.5.10.3 | www.virtualdub-fr.org || (build 2550/release)
Библиотека кодирования : VirtualDubMod build 2550/release

Видео
Идентификатор : 0
Формат : MPEG-4 Visual
Профиль формата : Advanced Simple@L5
Настройки формата : BVOP1
Параметр BVOP формата : 1
Параметр QPel формата : Нет
Параметр GMC формата : Без точки перехода
Параметр матрицы формата : Default (MPEG)
Идентификатор кодека : XVID
Идентификатор кодека/Подсказка : XviD
Продолжительность : 25 м. 48 с.
Битрейт : 1 695 Кбит/сек
Ширина : 720 пикселей
Высота : 400 пикселей
Соотношение сторон : 16:9
Частота кадров : 25,000 кадров/сек
Цветовое пространство : YUV
Субдискретизация насыщенности : 4:2:0
Битовая глубина : 8 бит
Тип развёртки : Прогрессивная
Метод сжатия : С потерями
Бит/(Пиксели*Кадры) : 0.235
Размер потока : 313 Мбайт (89%)
Библиотека кодирования : XviD 73

Аудио
Идентификатор : 1
Формат : AC-3
Формат/Информация : Audio Coding 3
Коммерческое название : Dolby Digital
Идентификатор кодека : 2000
Продолжительность : 25 м. 48 с.
Вид битрейта : Постоянный
Битрейт : 192 Кбит/сек
Каналы : 2 канала
Channel layout : L R
Частота : 48,0 КГц
Частота кадров : 31,250 кадров/сек (1536 SPF)
Метод сжатия : С потерями
Размер потока : 35,5 Мбайт (10%)
Выравнивание : Разделение по промежуткам
Продолжительность промежутка : 40 мс. (1,00 видеокадр)
Время предзагрузки промежутка : 500 мс.
Service kind : Complete Main

Внимание! Раздача ведётся путём добавления новых серий; при каждом добавлении создаётся новый торрент.
Чтобы начать докачку новой серии, пользователям необходимо сделать следующее:
1. Остановить скачивание;
2. Удалить старый торрент у себя из клиента (старые серии удалять не надо);
3. Скачать новый торрент и запустить его у себя в клиенте вместо старого, при этом указать клиенту путь в старую папку куда и должно происходить скачивание новых серий. Ваш клиент при этом должен произвести хеширование (проверку) старой папки и будет докачивать только те серии, которых у вас ещё нет. Старые серии при этом не удаляются, а продолжают раздаваться! Eсли вы уже удалили старые серии, то предотвратить повторную закачку старых серий можно, отжав галочку в соответствующих местах при запуске нового торрента.

pb.wtf



Скачать Жена олигарха через торрент https://b.radikal.ru/b38/2110/4f/96e45f9e06db.jpg Скачать, смотреть онлайн Жена олигарха бесплантно в хорошем качестве Описание: Жизнь Альбины меняется в один миг: под угрозой ареста муж-олигарх бросает её, прихватив с собой все деньги. Всё, что осталось от ... 10 10 5
Торрент: Зарегистрирован [2021-10-21 19:12] · скачан: 12 раз
Статус: √ проверено
Размер: 3.08 GB
Как cкачать? Как скачать Жена олигарха через торрент | UTorrent

% Раздел Тема Автор DL S | L
Наши сериалы [ 2.84 GB ] Жена олигарха / Сезон: 1 / Серии: 1-9 из 17 ) [2021 WEB-DLRip-AVC] bober100 Скачать
8 | 5

28-11-2019 20:33  

Отключить всю рекламу на сайте

    Дорогой пользователь! Огромная просьба, поблагодарите релизера, оцените раздачу и оставьте свои комментарий, если Вы скачали Жена олигарха через торрент бесплатно!
    Комментировать посты могут только пользователи прошедшие не сложную регистрацию
    Показать сообщения:    

    Жена олигарха через торрент
    Скачать бесплатно Жена олигарха
    Жена олигарха скачать торрент
    Жена олигарха смотреть онлайн
    Cкачать фильм Жена олигарха бесплатно
    Жена олигарха скачать торрент в хорошем качестве
    Жена олигарха смотреть онлайн бесплатно в хорошем качестве


    Вы не можете начинать темы
    Вы не можете отвечать на сообщения
    Вы не можете редактировать свои сообщения
    Вы не можете удалять свои сообщения
    Вы не можете голосовать в опросах
    Вы не можете прикреплять файлы к сообщениям
    Вы можете скачивать файлы