Anonymous, добрый день, присоединяйтесь к нам в Telegram!, здесь всегда актуальный адрес сайта, оперативная поддержка и многое другое!

>

5.5

iTunes

7.4

iTunes

7.9

iTunes

1

7.7

1 сезон

6.8

iTunes

7.3

1 сезон

13

6.7

1 сезон

8.3

RePack

30

ULTIMATE

pack

9.9

Лицензия

ВАЖНО

ИГРА 18+

pack

7.3

RePack

MK11

7.7

RePack

jed

7.8

RePack

fifa19

8.5

RePack

RDR2

RePack

NEED FOR SPEED™ PAYBACK

4 сезон

9 сезон

Бесстыжие 9 сезон

Все сериалы

все сериалы на PB.wtf

RePack

FAR CRY 5

Anonymous, добрый день, мы катастрофически не успеваем собрать деньги на оплату серверов, помогите нам пожалуйста 5,10,15р., для нас важна любая помощь . В качестве благодарности мы отключим Вам всю рекламу на сайте (укажите свой ник в строку Ваше имя)!

×
  
Magnet ссылка

Инсомния / Сезон: 1 / Серии: 1-5 из 8 (Ольга Френкель) [2021, Драма, триллер, детектив, мистика, WEBRip 1080p] pb.wtf

Инсомния через торрент pb.wtf

Раздают: 14 [ 1 MB/s ] Качают: 5 [ 0 KB/s ]
Размер: 8.39 GB | Добавлен: 3 д. назад | Торрент скачан:17 раз
Смотреть онлайн Инсомния | Скачать    Ребята, помогите собрать деньги на оплату серверов!!!

12-10-2021 08:09 Инсомния Скачать торрент  

Инсомния
Год выпуска: 2021
Страна: Россия
Студия: Кинокомпания "1-2-3 Production", "Косфильм"
Жанр: Драма, триллер, детектив, мистика
Продолжительность: ~ 00:55:00
Перевод: Не требуется
Субтитры: отсутствуют

Режиссер: Ольга Френкель



В ролях: Гоша Куценко, Ирина Старшенбаум, Мария Миронова (II), Сергей Сосновский, Александр Робак, Кирилл Кяро, Никита Ефремов, Роза Хайруллина, Игорь Миркурбанов, Полина Макарчик, Полина Гухман, Татьяна Ратникова, Даниил Бадаев, Светлана Коновалова (III)

Описание: Юрию 43 года. Он убежденный агностик, способный рационально объяснить абсолютно все — кроме своей бессонницы. Помогая своим клиентам справиться с самыми запущенными проблемами, уникальный психиатр-гипнотерапевт не в силах помочь себе избавиться от ночных кошмаров. В них он видит бывшую жену, покончившую с собой много лет назад...

Качество: WEBRip 1080p
Формат: MKV

Видео: MPEG-4 AVC, 1920x1072, ~ 4500 Кбит/с, 0.086 bit/pixel, 25 Кадр/с
Аудио: 48.0 kHz, AC3 Dolby Digital, 2/0 (L,R) ch, ~ 192 kbps
скриншот  скриншот  скриншот  скриншот  скриншот  

Общее
Уникальный идентификатор : 184496143962530649425687846980300569853 (0x8ACCAA322D55AE61BFD659A25347FCFD)
Полное имя : D:\Insomniya.2021.WEB-DL.(1080p).Getty\Insomniya.e01.2021.WEB-DL.(1080p).Getty.mkv
Формат : Matroska
Версия формата : Version 4
Размер файла : 1,79 Гбайт
Продолжительность : 55 м. 43 с.
Режим общего битрейта : Переменный
Общий поток : 4 608 Кбит/сек
Название фильма : Insomniya.e01.2021.WEB-DL.(1080p).Getty
Дата кодирования : UTC 2021-10-06 21:02:25
Программа кодирования : mkvmerge v7.8.0 ('River Man') 32bit built on Mar 27 2015 16:18:02
Библиотека кодирования : libebml v1.3.1 + libmatroska v1.4.2

Видео
Идентификатор : 1
Формат : AVC
Формат/Информация : Advanced Video Codec
Профиль формата : High@L4
Настройки формата : CABAC / 1 Ref Frames
Параметр CABAC формата : Да
Параметр RefFrames формата : 1 кадр
Параметр GOP формата : M=1, N=50
Идентификатор кодека : V_MPEG4/ISO/AVC
Продолжительность : 55 м. 43 с.
Вид битрейта : Переменный
Битрейт : 4 414 Кбит/сек
Максимальный битрейт : 4 500 Кбит/сек
Ширина : 1 920 пикселей
Высота : 1 072 пикселя
Соотношение сторон : 16:9
Режим частоты кадров : Постоянный
Частота кадров : 25,000 кадров/сек
Цветовое пространство : YUV
Субдискретизация насыщенности : 4:2:0
Битовая глубина : 8 бит
Тип развёртки : Прогрессивная
Бит/(Пиксели*Кадры) : 0.086
Размер потока : 1,72 Гбайт (96%)
Default : Да
Forced : Нет

Аудио
Идентификатор : 2
Формат : AC-3
Формат/Информация : Audio Coding 3
Коммерческое название : Dolby Digital
Идентификатор кодека : A_AC3
Продолжительность : 55 м. 43 с.
Вид битрейта : Постоянный
Битрейт : 192 Кбит/сек
Каналы : 2 канала
Channel layout : L R
Частота : 48,0 КГц
Частота кадров : 31,250 кадров/сек (1536 SPF)
Метод сжатия : С потерями
Размер потока : 76,5 Мбайт (4%)
Service kind : Complete Main
Default : Да
Forced : Нет

Когда раздача ведётся путём добавления новых серий, при каждом добавлении создётся новый торрент. Чтобы начать докачку новой серии, пользователям необходимо сделать следующее:
(1) остановить скачивание,
(2) удалить старый торрент у себя из клиента (старые серии удалять не надо),
(3) скачать новый торрент и запустить его у себя в клиенте вместо старого, при этом указать клиенту путь в старую папку, куда и должно происходить скачивание новых серий.
Ваш клиент при этом должен произвести хеширование (проверку) старой папки (если не производит сам - помогите ему сделать это), и будет докачивать только те серии, которых у вас ещё нет. Старые серии при этом не удаляются, а продолжают раздаваться!
Eсли вы уже удалили старые серии, то предотвратить повторную закачку старых серий можно, отжав галочку в соответсвующих местах при запуске нового торрента. По возможности, желательно не удалять старые серии как можно дольше, чтобы релизёр не столько продолжал раздавать старые серии, а смог сконцентрироваться на новых.

pb.wtf



Скачать Инсомния через торрент https://i115.fastpic.org/big/2021/1007/55/6e521deef1a5e3685488b5dacdc48955.jpg Скачать, смотреть онлайн Инсомния бесплантно в хорошем качестве Описание: Юрию 43 года. Он убежденный агностик, способный рационально объяснить абсолютно все — кроме своей бессонницы. Помогая своим ... 10 10 4
Торрент: Зарегистрирован [2021-10-21 04:32] · скачан: 17 раз
Статус: √ проверено
Размер: 8.39 GB
Как cкачать? Как скачать Инсомния через торрент | UTorrent

% Раздел Тема Автор DL S | L
TNT serials [ 3.26 GB ] Инсомния / Сезон: 1 / Серии: 1-5 из 8 [2021 WEBRip-AVC] bober100 Скачать
8 | 7
* TNT serials [ 3.24 GB ] Инсомния / Сезон: 1 / Серии: 1-5 из 8 [2021 WEBRip] GEKADOL Скачать
1 | 15

28-11-2019 20:33  

Отключить всю рекламу на сайте

    Дорогой пользователь! Огромная просьба, поблагодарите релизера, оцените раздачу и оставьте свои комментарий, если Вы скачали Инсомния через торрент бесплатно!
    Комментировать посты могут только пользователи прошедшие не сложную регистрацию
    Показать сообщения:    

    Инсомния через торрент
    Скачать бесплатно Инсомния
    Инсомния скачать торрент
    Инсомния смотреть онлайн
    Cкачать фильм Инсомния бесплатно
    Инсомния скачать торрент в хорошем качестве
    Инсомния смотреть онлайн бесплатно в хорошем качестве


    Вы не можете начинать темы
    Вы не можете отвечать на сообщения
    Вы не можете редактировать свои сообщения
    Вы не можете удалять свои сообщения
    Вы не можете голосовать в опросах
    Вы не можете прикреплять файлы к сообщениям
    Вы можете скачивать файлы