Anonymous, добрый день, присоединяйтесь к нам в Telegram!, здесь всегда актуальный адрес сайта, оперативная поддержка и многое другое!

>

5.6

iTunes

7.4

iTunes

7.9

MVO

1

7.7

1 сезон

6.8

iTunes

7.3

1 сезон

13

6.7

1 сезон

8.3

RePack

30

ОНЛАЙН

pack

9.9

Лицензия

ВАЖНО

ИГРА 18+

pack

7.3

RePack

MK11

7.7

RePack

jed

7.8

RePack

fifa19

8.5

RePack

RDR2

RePack

NEED FOR SPEED™ PAYBACK

4 сезон

9 сезон

Бесстыжие 9 сезон

Все сериалы

все сериалы на PB.wtf

RePack

FAR CRY 5

Anonymous, добрый день, мы катастрофически не успеваем собрать деньги на оплату серверов, помогите нам пожалуйста 5,10,15р., для нас важна любая помощь . В качестве благодарности мы отключим Вам всю рекламу на сайте (укажите свой ник в строку Ваше имя)!

×
  
Magnet ссылка

Незнакомец / Dead in the Water (Нанея Мията) [2020, Триллер, WEB-DL 720p] DUB [iTunes] pb.wtf

Незнакомец через торрент pb.wtf

Раздают: 3 [ 0 KB/s ]
Размер: 2.31 GB | Добавлен: 8 д. назад | Торрент скачан:55 раз
Смотреть онлайн Незнакомец | Скачать    Ребята, помогите собрать деньги на оплату серверов!!!

12-10-2021 08:25 Незнакомец Скачать торрент  

Незнакомец | Dead in the Water
Год выпуска: 2020
Страна: США
Студия: Lunar Field
Жанр: Триллер
Продолжительность: 01:31:08
Перевод: Дублированный | iTunes
Субтитры: Английские (Full)

Режиссер: Нанея Мията

rating

В ролях: Катрин Лидстоун, Энджела Галнер, Питер Порте, Сэм Крумрин, Майкл Блейк Крус

Описание: Две лучшие подруги решили вместе провести выходные за городом. Для этого они отправились в родительский домик одной из девушек, расположенный в лесу у озера. Однако их планы на одинокий отдых разрушил привлекательный незнакомец, который встретил девушек на прогулке по лесу. Молодой человек очаровал обеих красавиц и был приглашен ими в дом. Загадочный гость сначала украсил досуг подруг, потом вызвал накал страстей и заставил подруг сомневаться друг в друге. Но дальнейшие события заставляют девушек бороться уже не за дружбу или любовь, а за собственную жизнь.

Качество: WEB-DL 720p
Формат: MKV

Видео: MPEG-4 AVC, 1280x720 at 23.976 fps, x264@L4.1, ~3046 kbps
Аудио: 48 kHz, AC3 Dolby Digital, 3/2 (L, C, R, l, r) + LFE ch, ~384 Kbps | RUS |
Аудио: 48 kHz, AC3 Dolby Digital, 2/0 (L,R) ch, ~192 kbps avg | ENG |
скриншот  скриншот  скриншот  скриншот  скриншот  

x264 info: frame I:988 Avg QP:13.21 size: 97873
x264 info: frame P:32190 Avg QP:15.71 size: 31666
x264 info: frame B:97925 Avg QP:17.11 size: 9865

General
Unique ID : 228321272484936355975128209721756242753 (0xABC513DB195065EDFBA4A0578FC45341)
Complete name : G:Dead.in.the.Water.2020.AMZN.WEB-DLRip.x264.720p.mkv
Format : Matroska
Format version : Version 4
File size : 2.31 GiB
Duration : 1 h 31 min
Overall bit rate : 3 623 kb/s
Encoded date : UTC 2021-10-12 08:16:18
Writing application : mkvmerge v62.0.0 ('Apollo') 64-bit
Writing library : libebml v1.4.2 + libmatroska v1.6.4
Cover : Yes
Attachments : Cover.jpg / Cover 2.jpg

Video
ID : 1
Format : AVC
Format/Info : Advanced Video Codec
Format profile : High@L4.1
Format settings : CABAC / 9 Ref Frames
Format settings, CABAC : Yes
Format settings, Reference : 9 frames
Codec ID : V_MPEG4/ISO/AVC
Duration : 1 h 31 min
Bit rate : 3 046 kb/s
Width : 1 280 pixels
Height : 720 pixels
Display aspect ratio : 16:9
Frame rate mode : Constant
Frame rate : 23.976 (24000/1001) FPS
Color space : YUV
Chroma subsampling : 4:2:0
Bit depth : 8 bits
Scan type : Progressive
Bits/(Pixel*Frame) : 0.138
Stream size : 1.94 GiB (84%)
Title : -=DoMiNo=-
Writing library : x264 core 161 r3020 d198931
Encoding settings : cabac=1 / ref=9 / deblock=1:-3:-3 / analyse=0x3:0x133 / me=umh / subme=9 / psy=1 / psy_rd=1.00:0.00 / mixed_ref=1 / me_range=32 / chroma_me=1 / trellis=2 / 8x8dct=1 / cqm=0 / deadzone=21,11 / fast_pskip=1 / chroma_qp_offset=-2 / threads=24 / lookahead_threads=4 / sliced_threads=0 / nr=0 / decimate=1 / interlaced=0 / bluray_compat=0 / constrained_intra=0 / bframes=9 / b_pyramid=2 / b_adapt=2 / b_bias=0 / direct=3 / weightb=1 / open_gop=0 / weightp=2 / keyint=240 / keyint_min=24 / scenecut=40 / intra_refresh=0 / rc_lookahead=60 / rc=2pass / mbtree=0 / bitrate=3046 / ratetol=1.0 / qcomp=0.60 / qpmin=0 / qpmax=69 / qpstep=4 / cplxblur=20.0 / qblur=0.5 / vbv_maxrate=50000 / vbv_bufsize=50000 / nal_hrd=none / filler=0 / ip_ratio=1.40 / pb_ratio=1.30 / aq=1:1.00
Language : English
Default : Yes
Forced : No
Color range : Limited
Color primaries : BT.709
Transfer characteristics : BT.709
Matrix coefficients : BT.709

Audio #1
ID : 2
Format : AC-3
Format/Info : Audio Coding 3
Commercial name : Dolby Digital
Codec ID : A_AC3
Duration : 1 h 31 min
Bit rate mode : Constant
Bit rate : 384 kb/s
Channel(s) : 6 channels
Channel layout : L R C LFE Ls Rs
Sampling rate : 48.0 kHz
Frame rate : 31.250 FPS (1536 SPF)
Compression mode : Lossy
Stream size : 250 MiB (11%)
Title : [DUB] DD 5.1 @ 384 kbps (iTunes)
Language : Russian
Service kind : Complete Main
Default : Yes
Forced : Yes

Audio #2
ID : 3
Format : AC-3
Format/Info : Audio Coding 3
Commercial name : Dolby Digital
Codec ID : A_AC3
Duration : 1 h 31 min
Bit rate mode : Constant
Bit rate : 192 kb/s
Channel(s) : 2 channels
Channel layout : L R
Sampling rate : 48.0 kHz
Frame rate : 31.250 FPS (1536 SPF)
Compression mode : Lossy
Stream size : 125 MiB (5%)
Language : English
Service kind : Complete Main
Default : No
Forced : No

Text
ID : 4
Format : UTF-8
Codec ID : S_TEXT/UTF8
Codec ID/Info : UTF-8 Plain Text
Duration : 1 h 31 min
Bit rate : 58 b/s
Count of elements : 1434
Stream size : 39.1 KiB (0%)
Title : Full-length
Language : English
Default : No
Forced : No

pb.wtf



Скачать Незнакомец через торрент https://i115.fastpic.org/big/2021/1012/06/aad2ac8732b845f43c51fe68d8888a06.jpg Скачать, смотреть онлайн Незнакомец бесплантно в хорошем качестве Описание: Две лучшие подруги решили вместе провести выходные за городом. Для этого они отправились в родительский домик одной из девушек, ... 10 10 6
Торрент: Зарегистрирован [2021-10-12 08:25] · скачан: 55 раз
Статус: √ проверено
Размер: 2.31 GB
Как cкачать? Как скачать Незнакомец через торрент | UTorrent

% Раздел Тема Автор DL S | L
Фильмы 2019-2020 [DVDrip, WEB-DLRip, HDrip] (DUB, MVO) [ 1.46 GB ] Незнакомец / Dead in the Water [2020 WEB-DLRip-AVC] bober100 Скачать
13 | 0
Фильмы 2019-2020 [DVDrip, WEB-DLRip, HDrip] (DUB, MVO) [ 1.46 GB ] Незнакомец / Dead in the Water [2020 WEB-DLRip] bober100 Скачать
6 | 0

28-11-2019 20:33  

Отключить всю рекламу на сайте

    Дорогой пользователь! Огромная просьба, поблагодарите релизера, оцените раздачу и оставьте свои комментарий, если Вы скачали Незнакомец через торрент бесплатно!
    Комментировать посты могут только пользователи прошедшие не сложную регистрацию
    Показать сообщения:    

    Незнакомец через торрент
    Скачать бесплатно Незнакомец
    Незнакомец скачать торрент
    Незнакомец смотреть онлайн
    Cкачать фильм Незнакомец бесплатно
    Незнакомец скачать торрент в хорошем качестве
    Незнакомец смотреть онлайн бесплатно в хорошем качестве


    Вы не можете начинать темы
    Вы не можете отвечать на сообщения
    Вы не можете редактировать свои сообщения
    Вы не можете удалять свои сообщения
    Вы не можете голосовать в опросах
    Вы не можете прикреплять файлы к сообщениям
    Вы можете скачивать файлы