Присоединяйтесь к нам в Telegram!, здесь всегда актуальный адрес сайта, оперативная поддержка и многое другое!!

>

5.9

iTunes

7.4

iTunes

9.4

1 сезон

1

7.4

2 сезон

7.2

iTunes

7.3

1 сезон

13

6.1

iTunes

8.3

GOG

30

ULTIMATE

pack

9.9

Лицензия

ВАЖНО

ИГРА 18+

pack

7.3

RePack

MK11

7.7

RePack

jed

7.8

RePack

fifa19

8.5

RePack

RDR2

RePack

NEED FOR SPEED™ PAYBACK

5 сезон

9 сезон

Бесстыжие 9 сезон

Все сериалы

все сериалы на PB.wtf

RePack

FAR CRY 5

Anonymous, доброе утро, мы катастрофически не успеваем собрать деньги на оплату серверов, помогите нам пожалуйста 5,10,15р., для нас важна любая помощь . В качестве благодарности мы отключим Вам всю рекламу на сайте (укажите свой ник в строку Ваше имя)!

×
  
Magnet ссылка

Легенда о Зелёном Рыцаре / The Green Knight (Дэвид Лоури) [2021, Фэнтези, приключения, HDLRip-AVC] DUB [ СинеЛаб СаундМикс] от ExKinoRay pb.wtf

Легенда о Зелёном Рыцаре через торрент pb.wtf

Раздают: 5 [ 138 KB/s ]
Размер: 2.49 GB | Добавлен: 1 мес. 20 д. назад | Торрент скачан:100 раз
Смотреть онлайн Легенда о Зелёном Рыцаре | Скачать    Ребята, помогите собрать деньги на оплату серверов!!!

12-10-2021 17:43 Легенда о Зелёном Рыцаре Скачать торрент  


Легенда о Зелёном Рыцаре / The Green Knight
Информация о фильме:
Название: Легенда о Зелёном Рыцаре
Оригинальное название: The Green Knight
Год выхода: 2021
Жанр: фэнтези, приключения, драма
Режиссер: Дэвид Лоури

В ролях: Дев Патель, Алисия Викандер, Джоэл Эдгертон, Шон Харрис, Сарита Чоудри, Барри Кеоган, Ралф Айнесон, Кейт Дики, Эрин Келлиман, Аарон Эдо, Юссеф Куинн

Описание: Король празднует Рождество в замке в окружении двора и верных рыцарей, куда вдруг заявляется загадочный Зелёный Рыцарь и предлагает принять его вызов. Любой из присутствующих может нанести ему удар, но через год и один день он должен будет встретится с Зелёным Рыцарем в зелёной часовне в девяти днях пути на север и принять удар в ответ. Молодой сэр Гавейн, племянник и единственный наследник короля, вызывается на поединок и отрубает странному гостю голову. Но тот, приставив голову на место, напоминает об уговоре и удаляется. Год спустя верный данному слову сэр Гавейн отправляется навстречу судьбе в полное опасностей путешествие.



Страна: Ирландия, Канада, США, Великобритания
Студия: A24, Bron Studios, Creative Wealth Media Finance, Ley Line Entertainment, Sailor Bear, Wild Atlantic Pictures
Продолжительность: 02:09:46
Перевод: Дублированный - СинеЛаб СаундМикс



Информация о файле:
Кодек: AVC
Формат: MKV
Качество: HDRip-AVC
Видео: MPEG-4 AVC, 1024x554, 23.976 fps, 1850 kbps
Аудио RU: AC3, 6 ch, 48 kHz, 448 kbps
Аудио EN: AC3, 6 ch, 48 kHz, 448 kbps
Субтитры: Русские (Forced, full), английские

x264 info: frame I:1374 Avg QP:10.69 size: 92990
x264 info: frame P:37117 Avg QP:14.18 size: 27329
x264 info: frame B:148205 Avg QP:17.11 size: 4437
x264 info: consecutive B-frames: 1.6% 2.5% 7.8% 10.7% 16.4% 36.5% 9.7% 5.1% 6.9% 2.7%
General
Unique ID : 289357260264428771411439905518780078517 (0xD9B02E643B440BBAB5CD8D1BBB0AD9B5)
Complete name : D:uTorrentРипы wolf1245The Green Knight.2021.DUB.HDRip-AVC.[wolf1245.ExKinoRay].mkv
Format : Matroska
Format version : Version 4
File size : 2.49 GiB
Duration : 2 h 9 min
Overall bit rate : 2 747 kb/s
Movie name : The Green Knight.2021.DUB.HDRip-AVC.[wolf1245.ExKinoRay]
Encoded date : UTC 2021-10-12 17:24:33
Writing application : mkvmerge v62.0.0 ('Apollo') 64-bit
Writing library : libebml v1.4.2 + libmatroska v1.6.4
Video
ID : 1
Format : AVC
Format/Info : Advanced Video Codec
Format profile : High@L4.1
Format settings : CABAC / 14 Ref Frames
Format settings, CABAC : Yes
Format settings, Reference frames : 14 frames
Codec ID : V_MPEG4/ISO/AVC
Duration : 2 h 9 min
Bit rate : 1 850 kb/s
Width : 1 024 pixels
Height : 554 pixels
Display aspect ratio : 1.85:1
Frame rate mode : Constant
Frame rate : 23.976 (24000/1001) FPS
Color space : YUV
Chroma subsampling : 4:2:0
Bit depth : 8 bits
Scan type : Progressive
Bits/(Pixel*Frame) : 0.136
Stream size : 1.68 GiB (67%)
Title : -=[wolf1245.ExKinoRay]=-
Writing library : x264 core 161 r3020 d198931
Encoding settings : cabac=1 / ref=14 / deblock=1:-3:-3 / analyse=0x3:0x133 / me=umh / subme=11 / psy=1 / psy_rd=1.00:0.05 / mixed_ref=1 / me_range=48 / chroma_me=1 / trellis=2 / 8x8dct=1 / cqm=0 / deadzone=21,11 / fast_pskip=1 / chroma_qp_offset=-3 / threads=10 / lookahead_threads=1 / sliced_threads=0 / nr=0 / decimate=1 / interlaced=0 / bluray_compat=0 / constrained_intra=0 / bframes=9 / b_pyramid=2 / b_adapt=2 / b_bias=0 / direct=3 / weightb=1 / open_gop=0 / weightp=2 / keyint=240 / keyint_min=24 / scenecut=40 / intra_refresh=0 / rc_lookahead=60 / rc=2pass / mbtree=1 / bitrate=1850 / ratetol=1.0 / qcomp=0.60 / qpmin=0 / qpmax=69 / qpstep=4 / cplxblur=20.0 / qblur=0.5 / vbv_maxrate=50000 / vbv_bufsize=62500 / nal_hrd=none / filler=0 / ip_ratio=1.40 / aq=3:0.80
Language : English
Default : Yes
Forced : No
Color range : Limited
Color primaries : BT.709
Matrix coefficients : BT.709
Audio #1
ID : 2
Format : AC-3
Format/Info : Audio Coding 3
Commercial name : Dolby Digital
Codec ID : A_AC3
Duration : 2 h 9 min
Bit rate mode : Constant
Bit rate : 448 kb/s
Channel(s) : 6 channels
Channel layout : L R C LFE Ls Rs
Sampling rate : 48.0 kHz
Frame rate : 31.250 FPS (1536 SPF)
Compression mode : Lossy
Stream size : 416 MiB (16%)
Title : Dub | СинеЛаб СаундМикс
Language : Russian
Service kind : Complete Main
Default : Yes
Forced : No
Audio #2
ID : 3
Format : AC-3
Format/Info : Audio Coding 3
Commercial name : Dolby Digital
Codec ID : A_AC3
Duration : 2 h 9 min
Bit rate mode : Constant
Bit rate : 448 kb/s
Channel(s) : 6 channels
Channel layout : L R C LFE Ls Rs
Sampling rate : 48.0 kHz
Frame rate : 31.250 FPS (1536 SPF)
Compression mode : Lossy
Stream size : 416 MiB (16%)
Title : Original
Language : English
Service kind : Complete Main
Default : No
Forced : No
Text #1
ID : 4
Format : UTF-8
Codec ID : S_TEXT/UTF8
Codec ID/Info : UTF-8 Plain Text
Duration : 1 h 59 min
Bit rate : 0 b/s
Count of elements : 14
Stream size : 467 Bytes (0%)
Title : Forced
Language : Russian
Default : Yes
Forced : Yes
Text #2
ID : 5
Format : UTF-8
Codec ID : S_TEXT/UTF8
Codec ID/Info : UTF-8 Plain Text
Duration : 2 h 4 min
Bit rate : 32 b/s
Count of elements : 718
Stream size : 29.6 KiB (0%)
Title : Full
Language : Russian
Default : No
Forced : No
Text #3
ID : 6
Format : UTF-8
Codec ID : S_TEXT/UTF8
Codec ID/Info : UTF-8 Plain Text
Duration : 2 h 8 min
Bit rate : 31 b/s
Count of elements : 1238
Stream size : 29.6 KiB (0%)
Title : SDH
Language : English
Default : No
Forced : No
Menu
00:00:00.000 : :Chapter 01
00:06:54.956 : :Chapter 02
00:15:04.445 : :Chapter 03
00:25:13.220 : :Chapter 04
00:32:26.695 : :Chapter 05
00:41:46.504 : :Chapter 06
00:48:36.539 : :Chapter 07
00:54:26.096 : :Chapter 08
01:02:32.290 : :Chapter 09
01:09:30.917 : :Chapter 10
01:14:42.978 : :Chapter 11
01:22:58.974 : :Chapter 12
01:30:42.145 : :Chapter 13
01:37:10.533 : :Chapter 14
01:48:51.692 : :Chapter 15
02:00:00.485 : :Chapter 16
Релиз от:
Автор релиза:
pb.wtf



Скачать Легенда о Зелёном Рыцаре через торрент https://i.postimg.cc/zXQ5xKNW/500.png Скачать, смотреть онлайн Легенда о Зелёном Рыцаре бесплантно в хорошем качестве Описание: Король празднует Рождество в замке в окружении двора и верных рыцарей, куда вдруг заявляется загадочный Зелёный Рыцарь и ... 10 10 8
Info! Золотая раздача, скачанное не засчитывается.
Торрент: Зарегистрирован [2021-10-12 17:43] · скачан: 100 раз
Статус: √ проверено
Размер: 2.49 GB
Как cкачать? Как скачать Легенда о Зелёном Рыцаре через торрент | UTorrent

28-11-2019 20:33  

Отключить всю рекламу на сайте

13-10-2021 15:21 Легенда о Зелёном Рыцаре Скачать торрент  

За релиз -спасибо
Фильм пополнил мою коллекцию говнофильмов.
потраченное времяpb.wtf



13-10-2021 18:09 Легенда о Зелёном Рыцаре Скачать торрент  

Фильм походу из тех, что показывают на фестивалях кино, где сидят специалисты пипец какого уровня. Для простых людей не понять.
Советую пройти мимоpb.wtf



14-10-2021 09:51 Легенда о Зелёном Рыцаре Скачать торрент  

2 часа в никуда.... Это дичь.... Что курил автор, даже не представляю....!pb.wtf



    Дорогой пользователь! Огромная просьба, поблагодарите релизера, оцените раздачу и оставьте свои комментарий, если Вы скачали Легенда о Зелёном Рыцаре через торрент бесплатно!
    Комментировать посты могут только пользователи прошедшие не сложную регистрацию
    Показать сообщения:    

    Легенда о Зелёном Рыцаре через торрент
    Скачать бесплатно Легенда о Зелёном Рыцаре
    Легенда о Зелёном Рыцаре скачать торрент
    Легенда о Зелёном Рыцаре смотреть онлайн
    Cкачать фильм Легенда о Зелёном Рыцаре бесплатно
    Легенда о Зелёном Рыцаре скачать торрент в хорошем качестве
    Легенда о Зелёном Рыцаре смотреть онлайн бесплатно в хорошем качестве


    Вы не можете начинать темы
    Вы не можете отвечать на сообщения
    Вы не можете редактировать свои сообщения
    Вы не можете удалять свои сообщения
    Вы не можете голосовать в опросах
    Вы не можете прикреплять файлы к сообщениям
    Вы можете скачивать файлы