Присоединяйтесь к нам в Telegram!, здесь всегда актуальный адрес сайта, оперативная поддержка и многое другое!!

>

5.9

iTunes

7.4

iTunes

9.4

1 сезон

1

7.4

2 сезон

7.2

iTunes

7.3

1 сезон

13

6.1

iTunes

8.3

GOG

30

ULTIMATE

pack

9.9

Лицензия

ВАЖНО

ИГРА 18+

pack

7.3

RePack

MK11

7.7

RePack

jed

7.8

RePack

fifa19

8.5

RePack

RDR2

RePack

NEED FOR SPEED™ PAYBACK

5 сезон

9 сезон

Бесстыжие 9 сезон

Все сериалы

все сериалы на PB.wtf

RePack

FAR CRY 5

Anonymous, доброй ночи, мы катастрофически не успеваем собрать деньги на оплату серверов, помогите нам пожалуйста 5,10,15р., для нас важна любая помощь . В качестве благодарности мы отключим Вам всю рекламу на сайте (укажите свой ник в строку Ваше имя)!

×
  
Magnet ссылка

О матерях / Welcome to the Blumhouse: Madres (Райан Сарагоса) [2021, Ужасы, драма, WEB-DLRip-AVC] MVO [HDRezka Studio] от ExKinoRay pb.wtf

О матерях через торрент pb.wtf

Размер: 1.78 GB | Добавлен: 1 мес. 17 д. назад | Торрент скачан:15 раз
Смотреть онлайн О матерях | Скачать    Ребята, помогите собрать деньги на оплату серверов!!!

12-10-2021 19:44 О матерях Скачать торрент  


О матерях / Welcome to the Blumhouse: Madres
Информация о фильме:
Название: О матерях
Оригинальное название: Welcome to the Blumhouse: Madres
Год выхода: 2021
Жанр: Ужасы, драма
Режиссер: Райан Сарагоса

В ролях: Эльпидия Каррильо, Теноч Уэрта, Керри Кехилл, Ариана Гуерра, Дженнифер Патино, Бриттон Уэбб, Эвелин Гонзалез, Рене Мена, Джейсон Бэйл, Эшли Льюис, Сарай Боррего, Джозеф А. Гарсиа, Роберт Ларривьер, Хэрлон Миллер

Описание: 1970-е. Глубоко беременная Диана вместе с мужем-мексиканцем селится в иммигрантской коммуне в Калифорнии. Муж занимается сельским хозяйством и постепенно вливается в коллектив, а неговорящая по-испански Диана чувствует себя изгоем. Проводя дни в одиночестве, женщина находит вещи предыдущих жильцов и начинает замечать, что с их новым домом что-то не так.



Страна: США
Студия: Amazon Studios, Blumhouse Productions
Продолжительность: 01:23:40
Перевод: Профессиональный (многоголосый, закадровый) - HDRezka Studio



Информация о файле:
Кодек: AVC
Формат: MKV
Качество: WEB-DLRip-AVC
Видео: MPEG-4 AVC, 1024x426, 23.976 fps, 2150 kbps
Аудио RU: AC3, 6 ch, 48 kHz, 448 kbps
Аудио EN: AC3, 6 ch, 48 kHz, 448 kbps
Субтитры: Русские (Forced (HDRezka), Full), английские, испанские, французские, немецкие, итальянские | AMZN

x264 info: frame I:785 Avg QP:11.80 size: 76528
x264 info: frame P:23525 Avg QP:14.58 size: 25441
x264 info: frame B:96069 Avg QP:17.34 size: 7190
x264 info: consecutive B-frames: 1.0% 1.1% 3.9% 25.2% 14.0% 32.6% 9.0% 7.5% 1.7% 1.2% 2.7%
General
Unique ID : 118837351321282030272294293150982189470 (0x59673DC899156C29E614BD83B71FB19E)
Complete name : D:uTorrentРипы wolf1245Welcome to the Blumhouse.Madres.2021.MVO.HDRezka.WEB-DLRip-AVC.[wolf1245.ExKinoRay].mkv
Format : Matroska
Format version : Version 4
File size : 1.78 GiB
Duration : 1 h 23 min
Overall bit rate : 3 049 kb/s
Movie name : Welcome to the Blumhouse.Madres.2021.MVO.HDRezka.WEB-DLRip-AVC.[wolf1245.ExKinoRay]
Encoded date : UTC 2021-10-12 19:31:10
Writing application : mkvmerge v62.0.0 ('Apollo') 64-bit
Writing library : libebml v1.4.2 + libmatroska v1.6.4
Video
ID : 1
Format : AVC
Format/Info : Advanced Video Codec
Format profile : High@L4.1
Format settings : CABAC / 14 Ref Frames
Format settings, CABAC : Yes
Format settings, Reference frames : 14 frames
Codec ID : V_MPEG4/ISO/AVC
Duration : 1 h 23 min
Bit rate : 2 150 kb/s
Width : 1 024 pixels
Height : 426 pixels
Display aspect ratio : 2.40:1
Frame rate mode : Constant
Frame rate : 23.976 (24000/1001) FPS
Color space : YUV
Chroma subsampling : 4:2:0
Bit depth : 8 bits
Scan type : Progressive
Bits/(Pixel*Frame) : 0.206
Stream size : 1.26 GiB (71%)
Title : -=[wolf1245.ExKinoRay]=-
Writing library : x264 core 161 r3020 d198931
Encoding settings : cabac=1 / ref=14 / deblock=1:-3:-3 / analyse=0x3:0x133 / me=umh / subme=11 / psy=1 / psy_rd=1.00:0.07 / mixed_ref=1 / me_range=48 / chroma_me=1 / trellis=2 / 8x8dct=1 / cqm=0 / deadzone=21,11 / fast_pskip=1 / chroma_qp_offset=-3 / threads=10 / lookahead_threads=2 / sliced_threads=0 / nr=0 / decimate=1 / interlaced=0 / bluray_compat=0 / constrained_intra=0 / bframes=10 / b_pyramid=2 / b_adapt=2 / b_bias=0 / direct=3 / weightb=1 / open_gop=0 / weightp=2 / keyint=240 / keyint_min=24 / scenecut=40 / intra_refresh=0 / rc_lookahead=60 / rc=2pass / mbtree=1 / bitrate=2150 / ratetol=1.0 / qcomp=0.60 / qpmin=0 / qpmax=69 / qpstep=4 / cplxblur=20.0 / qblur=0.5 / vbv_maxrate=50000 / vbv_bufsize=62500 / nal_hrd=none / filler=0 / ip_ratio=1.40 / aq=3:0.80
Language : English
Default : Yes
Forced : No
Color range : Limited
Color primaries : BT.709
Transfer characteristics : BT.709
Matrix coefficients : BT.709
Audio #1
ID : 2
Format : AC-3
Format/Info : Audio Coding 3
Commercial name : Dolby Digital
Codec ID : A_AC3
Duration : 1 h 23 min
Bit rate mode : Constant
Bit rate : 448 kb/s
Channel(s) : 6 channels
Channel layout : L R C LFE Ls Rs
Sampling rate : 48.0 kHz
Frame rate : 31.250 FPS (1536 SPF)
Compression mode : Lossy
Stream size : 268 MiB (15%)
Title : MVO | HDRezka Studio
Language : Russian
Service kind : Complete Main
Default : Yes
Forced : No
Audio #2
ID : 3
Format : AC-3
Format/Info : Audio Coding 3
Commercial name : Dolby Digital
Codec ID : A_AC3
Duration : 1 h 23 min
Bit rate mode : Constant
Bit rate : 448 kb/s
Channel(s) : 6 channels
Channel layout : L R C LFE Ls Rs
Sampling rate : 48.0 kHz
Frame rate : 31.250 FPS (1536 SPF)
Compression mode : Lossy
Stream size : 268 MiB (15%)
Title : Original
Language : English
Service kind : Complete Main
Default : No
Forced : No
Text #1
ID : 4
Format : UTF-8
Codec ID : S_TEXT/UTF8
Codec ID/Info : UTF-8 Plain Text
Duration : 1 h 22 min
Bit rate : 11 b/s
Count of elements : 164
Stream size : 6.65 KiB (0%)
Title : Forced | HDRezka
Language : Russian
Default : Yes
Forced : No
Text #2
ID : 5
Format : UTF-8
Codec ID : S_TEXT/UTF8
Codec ID/Info : UTF-8 Plain Text
Duration : 1 h 23 min
Bit rate : 59 b/s
Count of elements : 739
Stream size : 36.3 KiB (0%)
Title : Russian
Language : Russian
Default : No
Forced : No
Text #3
ID : 6
Format : UTF-8
Codec ID : S_TEXT/UTF8
Codec ID/Info : UTF-8 Plain Text
Duration : 1 h 11 min
Bit rate : 3 b/s
Count of elements : 94
Stream size : 1.86 KiB (0%)
Title : English [Forced]
Language : English
Default : No
Forced : No
Text #4
ID : 7
Format : UTF-8
Codec ID : S_TEXT/UTF8
Codec ID/Info : UTF-8 Plain Text
Duration : 1 h 23 min
Bit rate : 45 b/s
Count of elements : 1154
Stream size : 27.6 KiB (0%)
Title : English
Language : English
Default : No
Forced : No
Text #5
ID : 8
Format : UTF-8
Codec ID : S_TEXT/UTF8
Codec ID/Info : UTF-8 Plain Text
Duration : 1 h 23 min
Bit rate : 37 b/s
Count of elements : 724
Stream size : 22.8 KiB (0%)
Title : German
Language : German
Default : No
Forced : No
Text #6
ID : 9
Format : UTF-8
Codec ID : S_TEXT/UTF8
Codec ID/Info : UTF-8 Plain Text
Duration : 1 h 23 min
Bit rate : 35 b/s
Count of elements : 734
Stream size : 21.4 KiB (0%)
Title : French
Language : French
Default : No
Forced : No
Text #7
ID : 10
Format : UTF-8
Codec ID : S_TEXT/UTF8
Codec ID/Info : UTF-8 Plain Text
Duration : 1 h 23 min
Bit rate : 32 b/s
Count of elements : 660
Stream size : 19.9 KiB (0%)
Title : European Spanish
Language : Spanish
Default : No
Forced : No
Text #8
ID : 11
Format : UTF-8
Codec ID : S_TEXT/UTF8
Codec ID/Info : UTF-8 Plain Text
Duration : 1 h 23 min
Bit rate : 36 b/s
Count of elements : 737
Stream size : 22.1 KiB (0%)
Title : Italian
Language : Italian
Default : No
Forced : No
Релиз от:
Автор релиза:
pb.wtf



Скачать О матерях через торрент https://i115.fastpic.org/big/2021/1012/dc/890f2d19b8825456fdcffcc22684fadc.jpg Скачать, смотреть онлайн О матерях бесплантно в хорошем качестве Описание: 1970-е. Глубоко беременная Диана вместе с мужем-мексиканцем селится в иммигрантской коммуне в Калифорнии. Муж занимается ... 10 10 1
Info! Золотая раздача, скачанное не засчитывается.
Торрент: Зарегистрирован [2021-10-12 19:44] · скачан: 15 раз
Статус: √ проверено
Размер: 1.78 GB
Как cкачать? Как скачать О матерях через торрент | UTorrent

28-11-2019 20:33  

Отключить всю рекламу на сайте

    Дорогой пользователь! Огромная просьба, поблагодарите релизера, оцените раздачу и оставьте свои комментарий, если Вы скачали О матерях через торрент бесплатно!
    Комментировать посты могут только пользователи прошедшие не сложную регистрацию
    Показать сообщения:    

    О матерях через торрент
    Скачать бесплатно О матерях
    О матерях скачать торрент
    О матерях смотреть онлайн
    Cкачать фильм О матерях бесплатно
    О матерях скачать торрент в хорошем качестве
    О матерях смотреть онлайн бесплатно в хорошем качестве


    Вы не можете начинать темы
    Вы не можете отвечать на сообщения
    Вы не можете редактировать свои сообщения
    Вы не можете удалять свои сообщения
    Вы не можете голосовать в опросах
    Вы не можете прикреплять файлы к сообщениям
    Вы можете скачивать файлы