Anonymous, добрый день, присоединяйтесь к нам в Telegram!, здесь всегда актуальный адрес сайта, оперативная поддержка и многое другое!

>

5.6

iTunes

7.4

iTunes

7.9

MVO

1

7.7

1 сезон

6.8

iTunes

7.3

1 сезон

13

6.7

1 сезон

8.3

RePack

30

ОНЛАЙН

pack

9.9

Лицензия

ВАЖНО

ИГРА 18+

pack

7.3

RePack

MK11

7.7

RePack

jed

7.8

RePack

fifa19

8.5

RePack

RDR2

RePack

NEED FOR SPEED™ PAYBACK

4 сезон

9 сезон

Бесстыжие 9 сезон

Все сериалы

все сериалы на PB.wtf

RePack

FAR CRY 5

Anonymous, добрый день, мы катастрофически не успеваем собрать деньги на оплату серверов, помогите нам пожалуйста 5,10,15р., для нас важна любая помощь . В качестве благодарности мы отключим Вам всю рекламу на сайте (укажите свой ник в строку Ваше имя)!

×
  
Magnet ссылка

Последний день Земли / Le dernier voyage (Ромен Киро) [2020, Фантастика, драма, приключения, BDRip 720p] DUB | iTunes pb.wtf

Последний день Земли через торрент pb.wtf

Раздают: 12 [ 309 KB/s ]
Размер: 4.53 GB | Добавлен: 7 д. назад | Торрент скачан:77 раз
Смотреть онлайн Последний день Земли | Скачать    Ребята, помогите собрать деньги на оплату серверов!!!

13-10-2021 03:17 Последний день Земли Скачать торрент  

Последний день Земли | Le dernier voyage
«Кто остановит армагеддон?»
  • Год выпуска: 2020
  • Страна: Франция
  • Жанр: Фантастика, драма, приключения
  • Продолжительность: 01:26:55
  • Перевод: Профессиональный (полное дублирование) | iTunes
  • Режиссер: Ромен Киро
    rating
  • В ролях: Юго Беккер, Жан Рено, Поль Ами, Лиа Уссади-Лессер, Филипп Катрин, Брюно Лоше, Эмили Гавуа-Кан, Жан-Люк Кушар, Дариус Гарривье, Жан-Баптист Бланк
  • Описание: Будущее. Из-за чрезмерного использования энергии Красная луна меняет траекторию и направляется прямо к Земле. Пол В.Р. - единственный астронавт, способный ее уничтожить, отказывается выполнять миссию и таинственным образом исчезает. Неустанно преследуемый, Пол встречает Эльму - подростка с взрывным темпераментом, - которая будет сопровождать его в этом побеге.

  • Качество: BDRip 720p
  • Формат: MKV
  • Видео кодек: AVC
  • Аудио кодек: AC3
  • Видео: AVC, 1280 x 536, 24.000 fps, 6000 kbps
  • Аудио 1: Русский: AC3, 48 kHz, 6 ch, 384 kbps (iTunes)
  • Аудио 2: Украинский: AC3, 48 kHz, 6 ch, 448 kbps (Dub)
  • Аудио 3: Французский: AC3, 48 kHz, 6 ch, 640 kbps (Оригинал)
  • Субтитры: Нет

Код:

Complete name : Posledniy.den.Zemli.2020.BDRip.720p.ELEKTRI4KA.UNIONGANG.mkv
Format : Matroska
Format version : Version 4
File size : 4.53 GiB
Duration : 1 h 26 min
Overall bit rate : 7 467 kb/s
Movie name : Posledniy.den.Zemli.2020.BDRip.720p.ELEKTRI4KA.UNIONGANG.
Encoded date : UTC 2021-10-12 18:21:38
Writing application : mkvmerge v8.3.0 ('Over the Horizon') 32bit
Writing library : libebml v1.3.1 + libmatroska v1.4.2

Video
ID : 1
Format : AVC
Format/Info : Advanced Video Codec
Format profile : High@L4.1
Format settings : CABAC / 12 Ref Frames
Format settings, CABAC : Yes
Format settings, Reference frames : 12 frames
Codec ID : V_MPEG4/ISO/AVC
Duration : 1 h 26 min
Bit rate : 6 000 kb/s
Width : 1 280 pixels
Height : 536 pixels
Display aspect ratio : 2.40:1
Frame rate mode : Constant
Frame rate : 24.000 FPS
Color space : YUV
Chroma subsampling : 4:2:0
Bit depth : 8 bits
Scan type : Progressive
Bits/(Pixel*Frame) : 0.364
Stream size : 3.64 GiB (80%)
Writing library : x264 core 157 r2958 57baac4
Encoding settings : cabac=1 / ref=12 / deblock=1:-3:-3 / analyse=0x3:0x133 / me=umh / subme=10 / psy=1 / psy_rd=1.00:0.00 / mixed_ref=1 / me_range=32 / chroma_me=1 / trellis=2 / 8x8dct=1 / cqm=0 / deadzone=21, 11 / fast_pskip=0 / chroma_qp_offset=-2 / threads=49 / lookahead_threads=4 / sliced_threads=0 / nr=0 / decimate=0 / interlaced=0 / bluray_compat=0 / constrained_intra=0 / bframes=8 / b_pyramid=2 / b_adapt=2 / b_bias=0 / direct=3 / weightb=0 / open_gop=0 / weightp=2 / keyint=240 / keyint_min=24 / scenecut=40 / intra_refresh=0 / rc=2pass / mbtree=0 / bitrate=6000 / ratetol=1.0 / qcomp=0.60 / qpmin=0 / qpmax=69 / qpstep=4 / cplxblur=20.0 / qblur=0.5 / ip_ratio=1.40 / pb_ratio=1.30 / aq=1:1.00
Default : Yes
Forced : No
Color range : Limited
Color primaries : BT.709
Transfer characteristics : BT.709
Matrix coefficients : BT.709

Audio #1
ID : 2
Format : AC-3
Format/Info : Audio Coding 3
Commercial name : Dolby Digital
Codec ID : A_AC3
Duration : 1 h 26 min
Bit rate mode : Constant
Bit rate : 384 kb/s
Channel(s) : 6 channels
Channel layout : L R C LFE Ls Rs
Sampling rate : 48.0 kHz
Frame rate : 31.250 FPS (1536 SPF)
Compression mode : Lossy
Stream size : 238 MiB (5%)
Title : DUB (iTunes)
Language : Russian
Service kind : Complete Main
Default : Yes
Forced : Yes

Audio #2
ID : 3
Format : AC-3
Format/Info : Audio Coding 3
Commercial name : Dolby Digital
Codec ID : A_AC3
Duration : 1 h 26 min
Bit rate mode : Constant
Bit rate : 448 kb/s
Channel(s) : 6 channels
Channel layout : L R C LFE Ls Rs
Sampling rate : 48.0 kHz
Frame rate : 31.250 FPS (1536 SPF)
Compression mode : Lossy
Stream size : 278 MiB (6%)
Title : DUB
Language : Ukrainian
Service kind : Complete Main
Default : No
Forced : No

Audio #3
ID : 4
Format : AC-3
Format/Info : Audio Coding 3
Commercial name : Dolby Digital
Codec ID : A_AC3
Duration : 1 h 26 min
Bit rate mode : Constant
Bit rate : 640 kb/s
Channel(s) : 6 channels
Channel layout : L R C LFE Ls Rs
Sampling rate : 48.0 kHz
Frame rate : 31.250 FPS (1536 SPF)
Compression mode : Lossy
Stream size : 398 MiB (9%)
Title : Original
Language : French
Service kind : Complete Main
Default : No
Forced : No

Menu
00:00:00.000 : en:Chapter 01
00:06:20.208 : en:Chapter 02
00:13:23.166 : en:Chapter 03
00:21:08.250 : en:Chapter 04
00:27:34.208 : en:Chapter 05
00:35:41.708 : en:Chapter 06
00:43:41.833 : en:Chapter 07
00:50:54.791 : en:Chapter 08
00:58:45.083 : en:Chapter 09
01:04:54.958 : en:Chapter 10
01:11:40.166 : en:Chapter 11
01:18:23.208 : en:Chapter 12
01:21:43.875 : en:Chapter 13


скриншот   скриншот   скриншот   скриншот  
pb.wtf



Скачать Последний день Земли через торрент https://pic1.kartinco.top/new/img/2021-10/13/w25xdkf2p72h0i5yj7k24agno.png Скачать, смотреть онлайн Последний день Земли бесплантно в хорошем качестве Описание: Будущее. Из-за чрезмерного использования энергии Красная луна меняет траекторию и направляется прямо к Земле. Пол В.Р. - ... 10 10 3
Торрент: Зарегистрирован [2021-10-13 03:17] · скачан: 77 раз
Статус: √ проверено
Размер: 4.53 GB
Как cкачать? Как скачать Последний день Земли через торрент | UTorrent

% Раздел Тема Автор DL S | L
Фильмы (Blu-ray, BD-Remux, HDDVD) [ 13.75 GB ] Последний день Земли / Le dernier voyage [2020 BD Remux 1080p] DUB bober100 Скачать
4 | 0
Фильмы [HD 720p, 1080p] (Хороший звук DUB, MVO) [ 9.33 GB ] Последний день Земли / Le dernier voyage [2020 BDRip 1080p] DUB bober100 Скачать
17 | 4

28-11-2019 20:33  

Отключить всю рекламу на сайте

14-10-2021 03:15 Последний день Земли Скачать торрент  

Топик был перенесен из форума Оформление раздач (Кино, Видео и ТВ) в форум Фильмы [HD 720p, 1080p] (Хороший звук DUB, MVO)


Enigma2010pb.wtf



    Дорогой пользователь! Огромная просьба, поблагодарите релизера, оцените раздачу и оставьте свои комментарий, если Вы скачали Последний день Земли через торрент бесплатно!
    Комментировать посты могут только пользователи прошедшие не сложную регистрацию
    Показать сообщения:    

    Последний день Земли через торрент
    Скачать бесплатно Последний день Земли
    Последний день Земли скачать торрент
    Последний день Земли смотреть онлайн
    Cкачать фильм Последний день Земли бесплатно
    Последний день Земли скачать торрент в хорошем качестве
    Последний день Земли смотреть онлайн бесплатно в хорошем качестве


    Вы не можете начинать темы
    Вы не можете отвечать на сообщения
    Вы не можете редактировать свои сообщения
    Вы не можете удалять свои сообщения
    Вы не можете голосовать в опросах
    Вы не можете прикреплять файлы к сообщениям
    Вы можете скачивать файлы