Лицензия

MVO

1

1 сезон

Лицензия

Лицензия

13

MVO

1 сезон

Deluxe Edition

pack

Рекомендуем

30

Repack

ВАЖНО

ВАЖНО

Ghostwire

RePack

jed

RePack

fifa19

RePack

RDR2

RePack

NEED FOR SPEED™ PAYBACK

RePack

Кинопоиск HD

 Острые козырьки 6 сезон

6 сезон

FAR CRY 6

RePack

Лицензия

MVO

1

1 сезон

1 сезон

Лицензия

  

G. I. Joe. Бросок кобры: Снейк Айз / Snake Eyes: G.I. Joe Origins (Роберт Швентке) [2021, Фантастика, фэнтези, боевик, триллер, приключения, BD Remux 1080p] DUB [Пифагор]

G. I. Joe. Бросок кобры: Снейк Айз через торрент pb.wtf

Размер: 28.11 GB | Добавлен: 11 мес. назад | Торрент скачан:57 раз
Смотреть онлайн G. I. Joe. Бросок кобры: Снейк Айз | Скачать   

13-10-2021 04:04 G. I. Joe. Бросок кобры: Снейк Айз Скачать торрент  

G. I. Joe. Бросок кобры: Снейк Айз | Snake Eyes: G.I. Joe Origins
Год выпуска: 2021
Страна: Канада, США
Студия: Di Bonaventura Pictures, Hasbro Inc., Metro-Goldwyn-Mayer (MGM), Paramount Pictures, Skydance Productions
Жанр: Фантастика, фэнтези, боевик, триллер, приключения
Продолжительность: 02:01:24
Перевод: Дублированный | Пифагор
Субтитры: Русские (Forced, full), английские

Режиссер: Роберт Швентке

rating

В ролях: Генри Голдинг, Самара Уивинг, Урсула Корберо, Ико Уайс, Эндрю Кодзи, Харука Абэ, Стивен Аллерик, Питер Менса, Такехиро Хира, Самуэль Финци, Саймон Чин

Описание: Снейк Айз — самый загадочный и смертоносный член спецотряда G.I. Joe. Он всегда одет в черное, его лицо закрывает маска, и он никогда не разговаривает. Никто не знает, кто он и откуда.
«G.I. Joe: Бросок кобры. Снейк Айз» — спин-офф франшизы «Бросок кобры» о самом загадочном и смертоносном члене специального отряда G.I. Joe.

Качество: BD Remux 1080p
Формат: MKV

Видео: MPEG-4 AVC, 1920x1080, 27.2 Mbit/s, 23.976 fps
Аудио #01: 48 kHz, E-AC3, 5.1, 448 Kbps | Дублированный | RUS |
Аудио #02: 48 kHz, AC3, 5.1, 448 Kbps | Дублированный | Пифагор | RUS |
Аудио #03: 48 kHz, TrueHD, 7.1, 4363 Kbps | Оригинал | ENG |

Аудио #04: 48 kHz, AC3, 5.1, 640 Kbps | Оригинал | ENG |
скриншот  скриншот  скриншот  скриншот  скриншот  

General
Unique ID : 125163058048686254621085463752394587598 (0x5E2987345C3A74F52A2DF665D8FABDCE)
Complete name : E:VideoSnake.Eyes.2021.BDREMUX.1080p.seleZen.mkv
Format : Matroska
Format version : Version 4
File size : 28.1 GiB
Duration : 2 h 1 min
Overall bit rate mode : Variable
Overall bit rate : 33.1 Mb/s
Movie name : Snake Eyes: G.I. Joe Origins 2021 from seleZen
Encoded date : UTC 2021-10-13 01:18:22
Writing application : mkvmerge v59.0.0 ('Shining Star') 64-bit
Writing library : libebml v1.4.2 + libmatroska v1.6.4

Video
ID : 1
Format : AVC
Format/Info : Advanced Video Codec
Format profile : [email protected]
Format settings : CABAC / 4 Ref Frames
Format settings, CABAC : Yes
Format settings, Reference frames : 4 frames
Codec ID : V_MPEG4/ISO/AVC
Duration : 2 h 1 min
Bit rate mode : Variable
Bit rate : 27.2 Mb/s
Maximum bit rate : 29.8 Mb/s
Width : 1 920 pixels
Height : 1 080 pixels
Display aspect ratio : 16:9
Frame rate mode : Constant
Frame rate : 23.976 (24000/1001) FPS
Color space : YUV
Chroma subsampling : 4:2:0
Bit depth : 8 bits
Scan type : Progressive
Bits/(Pixel*Frame) : 0.547
Stream size : 23.0 GiB (82%)
Language : English
Default : Yes
Forced : No

Audio #1
ID : 2
Format : E-AC-3
Format/Info : Enhanced AC-3
Commercial name : Dolby Digital Plus
Codec ID : A_EAC3
Duration : 2 h 1 min
Bit rate mode : Constant
Bit rate : 448 kb/s
Channel(s) : 6 channels
Channel layout : L R C LFE Ls Rs
Sampling rate : 48.0 kHz
Frame rate : 31.250 FPS (1536 SPF)
Compression mode : Lossy
Stream size : 389 MiB (1%)
Title : Dub
Language : Russian
Service kind : Complete Main
Default : Yes
Forced : Yes

Audio #2
ID : 3
Format : AC-3
Format/Info : Audio Coding 3
Commercial name : Dolby Digital
Codec ID : A_AC3
Duration : 2 h 1 min
Bit rate mode : Constant
Bit rate : 448 kb/s
Channel(s) : 6 channels
Channel layout : L R C LFE Ls Rs
Sampling rate : 48.0 kHz
Frame rate : 31.250 FPS (1536 SPF)
Compression mode : Lossy
Stream size : 389 MiB (1%)
Title : Dub
Language : Russian
Service kind : Complete Main
Default : No
Forced : No

Audio #3
ID : 4
Format : MLP FBA 16-ch
Format/Info : Meridian Lossless Packing FBA with 16-channel presentation
Commercial name : Dolby TrueHD with Dolby Atmos
Codec ID : A_TRUEHD
Duration : 2 h 1 min
Bit rate mode : Variable
Bit rate : 4 363 kb/s
Maximum bit rate : 7 854 kb/s
Channel(s) : 8 channels
Channel layout : L R C LFE Ls Rs Lb Rb
Sampling rate : 48.0 kHz
Frame rate : 1 200.000 FPS (40 SPF)
Compression mode : Lossless
Stream size : 3.70 GiB (13%)
Title : Original
Language : English
Default : No
Forced : No
Number of dynamic objects : 11
Bed channel count : 1 channel
Bed channel configuration : LFE

Audio #4
ID : 5
Format : AC-3
Format/Info : Audio Coding 3
Commercial name : Dolby Digital
Format settings : Dolby Surround EX
Codec ID : A_AC3
Duration : 2 h 1 min
Bit rate mode : Constant
Bit rate : 640 kb/s
Channel(s) : 6 channels
Channel layout : L R C LFE Ls Rs
Sampling rate : 48.0 kHz
Frame rate : 31.250 FPS (1536 SPF)
Compression mode : Lossy
Stream size : 556 MiB (2%)
Language : English
Service kind : Complete Main
Default : No
Forced : No

Text #1
ID : 6
Format : UTF-8
Codec ID : S_TEXT/UTF8
Codec ID/Info : UTF-8 Plain Text
Duration : 1 h 59 min
Bit rate : 1 b/s
Count of elements : 25
Stream size : 1.21 KiB (0%)
Title : Forced
Language : Russian
Default : Yes
Forced : Yes

Text #2
ID : 7
Format : UTF-8
Codec ID : S_TEXT/UTF8
Codec ID/Info : UTF-8 Plain Text
Duration : 1 h 59 min
Bit rate : 42 b/s
Count of elements : 797
Stream size : 37.0 KiB (0%)
Title : Full
Language : Russian
Default : No
Forced : No

Text #3
ID : 8
Format : UTF-8
Codec ID : S_TEXT/UTF8
Codec ID/Info : UTF-8 Plain Text
Duration : 1 h 52 min
Bit rate : 26 b/s
Count of elements : 775
Stream size : 22.0 KiB (0%)
Title : Full
Language : English
Default : No
Forced : No

Menu
00:00:00.000 : Chapter 01
00:10:17.367 : Chapter 02
00:19:39.887 : Chapter 03
00:28:50.062 : Chapter 04
00:37:50.977 : Chapter 05
00:43:39.867 : Chapter 06
00:54:53.790 : Chapter 07
01:03:18.920 : Chapter 08
01:14:04.440 : Chapter 09
01:23:59.117 : Chapter 10
01:29:09.219 : Chapter 11
01:36:39.293 : Chapter 12
01:46:26.922 : Chapter 13
01:53:51.533 : Chapter 14




Скачать G. I. Joe. Бросок кобры: Снейк Айз через торрент https://d.radikal.ru/d19/2108/89/a941fddefea6.jpg Скачать, смотреть онлайн G. I. Joe. Бросок кобры: Снейк Айз бесплантно в хорошем качестве Описание: Снейк Айз — самый загадочный и смертоносный член спецотряда G.I. Joe. Он всегда одет в черное, его лицо закрывает маска, и он ... 10 10 4
Торрент: Зарегистрирован [2021-10-13 04:04] · скачан: 57 раз
Статус: √ проверено
Размер: 28.11 GB
Как cкачать? Как скачать G. I. Joe. Бросок кобры: Снейк Айз через торрент | UTorrent

% Раздел Тема Автор DL S | L
Фильмы (Blu-ray, BD-Remux, HDDVD) [ 39.77 GB ] G. I. Joe. Бросок кобры: Снейк Айз / Snake Eyes: G.I. Joe Origins | Лицензия | 1080p bober100 Скачать
1 | 0
Ultra HD (UHD: 2K, 4K, 8K) [ 49.02 GB ] G. I. Joe. Бросок кобры: Снейк Айз / Snake Eyes: G.I. Joe Origins | Пифагор | 2160p, (Dolby Vision Profile bober100 Скачать
2 | 0
Фильмы 2021 [DVDrip, WEB-DLRip, HDrip] (DUB, MVO) [ 1.46 GB ] G. I. Joe. Бросок кобры: Снейк Айз / Snake Eyes: G.I. Joe Origins | Лицензия Blu-ray CEE | BDRip bober100 Скачать
1 | 0
Фильмы 2021 [DVDrip, WEB-DLRip, HDrip] (DUB, MVO) [ 2.18 GB ] G. I. Joe. Бросок кобры: Снейк Айз / Snake Eyes: G.I. Joe Origins | Лицензия Blu-ray CEE | BDRip bober100 Скачать
1 | 0
Фильмы 2021 [DVDrip, WEB-DLRip, HDrip] (DUB, MVO) [ 2.42 GB ] G. I. Joe. Бросок кобры: Снейк Айз / Snake Eyes: G.I. Joe Origins | Пифагор | HDRip-AVC Lithuania Скачать
1 | 0
Фильмы [HD 720p, 1080p] (Хороший звук DUB, MVO) [ 4.32 GB ] G. I. Joe. Бросок кобры: Снейк Айз / Snake Eyes: G.I. Joe Origins | Пифагор | 720p bober100 Скачать
4 | 0
Фильмы 2021 [DVDrip, WEB-DLRip, HDrip] (DUB, MVO) [ 1.46 GB ] G. I. Joe. Бросок кобры: Снейк Айз / Snake Eyes: G.I. Joe Origins | Лицензия | BDRip от Twi7ter Twi7ter Скачать
1 | 2

28-11-2019 20:33  

Отключить вcю реклaмy на сайте

    Дорогой пользователь! Огромная просьба, поблагодарите релизера, оцените раздачу и оставьте свои комментарий, если Вы скачали G. I. Joe. Бросок кобры: Снейк Айз через торрент бесплатно!!
    Комментировать посты могут только пользователи прошедшие не сложную регистрацию
    Показать сообщения:    


    G. I. Joe. Бросок кобры: Снейк Айз через торрент
    Скачать бесплатно G. I. Joe. Бросок кобры: Снейк Айз
    G. I. Joe. Бросок кобры: Снейк Айз скачать торрент
    G. I. Joe. Бросок кобры: Снейк Айз смотреть онлайн
    Cкачать фильм G. I. Joe. Бросок кобры: Снейк Айз бесплатно
    G. I. Joe. Бросок кобры: Снейк Айз скачать торрент в хорошем качестве
    G. I. Joe. Бросок кобры: Снейк Айз смотреть онлайн бесплатно в хорошем качестве
    Вы не можете начинать темы
    Вы не можете отвечать на сообщения
    Вы не можете редактировать свои сообщения
    Вы не можете удалять свои сообщения
    Вы не можете голосовать в опросах
    Вы не можете прикреплять файлы к сообщениям
    Вы можете скачивать файлы