Anonymous, добрый день, присоединяйтесь к нам в Telegram!, здесь всегда актуальный адрес сайта, оперативная поддержка и многое другое!

>

5.6

iTunes

7.4

iTunes

7.9

MVO

1

7.7

1 сезон

6.8

iTunes

7.3

1 сезон

13

6.7

1 сезон

8.3

RePack

30

ULTIMATE

pack

9.9

Лицензия

ВАЖНО

ИГРА 18+

pack

7.3

RePack

MK11

7.7

RePack

jed

7.8

RePack

fifa19

8.5

RePack

RDR2

RePack

NEED FOR SPEED™ PAYBACK

4 сезон

9 сезон

Бесстыжие 9 сезон

Все сериалы

все сериалы на PB.wtf

RePack

FAR CRY 5

Anonymous, добрый день, мы катастрофически не успеваем собрать деньги на оплату серверов, помогите нам пожалуйста 5,10,15р., для нас важна любая помощь . В качестве благодарности мы отключим Вам всю рекламу на сайте (укажите свой ник в строку Ваше имя)!

×
  
Magnet ссылка

Последний день Земли / Le dernier voyage (Ромен Киро) [2020 г., фантастика, драма, приключения, HDRip, Дубляж "iTunes"] pb.wtf

Последний день Земли через торрент pb.wtf

Раздают: 11 [ 10 KB/s ] Качают: 1 [ 0 KB/s ]
Размер: 710 MB | Добавлен: 6 д. назад | Торрент скачан:50 раз
Смотреть онлайн Последний день Земли | Скачать    Ребята, помогите собрать деньги на оплату серверов!!!

13-10-2021 18:30 Последний день Земли Скачать торрент  

Последний день Земли / Le dernier voyage
Год выпуска: 2020
Страна: Франция / Apaches,Digital District,Belga Productions
Жанр: фантастика, драма, приключения
Продолжительность: 01:26:55
Перевод: Дубляж (iTunes)
«Кто остановит армагеддон?»

Режиссер: Ромен Киро

rating

В ролях: Хьюго Бекер, Жан Рено, Поль Ами, Лиа Уссади-Лессер, Филипп Катрин, Брюно Лоше, Эмили Гавуа-Кан, Жан-Люк Кушар, Дариус Гарривье, Жан-Батист Блан

Описание: Будущее. Навстречу Земле летит Красная луна. Столкновение грозит гибелью всему живому. Единственная надежда человечества — гениальный астронавт Пол В. Р.

Но накануне вылета он таинственным образом исчезает

Качество: HDRip
Формат: AVI
Видео кодек: DivX
Аудио кодек: MP3
Видео: 640x272 (2.35:1), 24.000 fps, DivX Codec 4.x ~1005 kbps avg, 0.24 bit/pixel
Аудио: 48 kHz, MPEG Layer 3, 2 ch, ~128.00 kbps avg

Общее
Полное имя : G:\ФИЛЬМЫ\Последний день Земли.2020.D.HDRip.avi
Формат : AVI
Формат/Информация : Audio Video Interleave
Размер файла : 710 Мбайт
Продолжительность : 1 ч. 26 м.
Общий поток : 1 142 Кбит/сек
Программа кодирования : VirtualDubMod 1.5.10.3 | www.virtualdub-fr.org || (build 2550/release)
Библиотека кодирования : VirtualDubMod build 2550/release

Видео
Идентификатор : 0
Формат : MPEG-4 Visual
Профиль формата : Advanced Simple@L5
Настройки формата : BVOP2
Параметр BVOP формата : 2
Параметр QPel формата : Нет
Параметр GMC формата : Без точки перехода
Параметр матрицы формата : Default (MPEG)
Идентификатор кодека : DIVX
Идентификатор кодека/Информация : Project Mayo
Идентификатор кодека/Подсказка : DivX 4
Продолжительность : 1 ч. 26 м.
Битрейт : 1 005 Кбит/сек
Ширина : 640 пикселей
Высота : 272 пикселя
Соотношение сторон : 2,35:1
Частота кадров : 24,000 кадра/сек
Цветовое пространство : YUV
Субдискретизация насыщенности : 4:2:0
Битовая глубина : 8 бит
Тип развёртки : Прогрессивная
Метод сжатия : С потерями
Бит/(Пиксели*Кадры) : 0.241
Размер потока : 625 Мбайт (88%)
Библиотека кодирования : XviD 1.2.1 (UTC 2008-12-04)

Аудио
Идентификатор : 1
Формат : MPEG Audio
Версия формата : Version 1
Профиль формата : Layer 3
Настройки формата : Joint stereo / MS Stereo
Идентификатор кодека : 55
Идентификатор кодека/Подсказка : MP3
Продолжительность : 1 ч. 26 м.
Вид битрейта : Постоянный
Битрейт : 128 Кбит/сек
Каналы : 2 канала
Частота : 48,0 КГц
Частота кадров : 41,667 кадра/сек (1152 SPF)
Метод сжатия : С потерями
Размер потока : 79,3 Мбайт (11%)
Выравнивание : Соединение по промежуткам
Продолжительность промежутка : 42 мс. (1,00 видеокадр)
Время предзагрузки промежутка : 504 мс.
Библиотека кодирования : LAME3.99r
Настройки программы : -m j -V 4 -q 2 -lowpass 17 -b 128

Report created by : MediaInfoLib - v21.09
Report created on : UTC 2021-10-13 18:16:53

pb.wtf



Скачать Последний день Земли через торрент https://pic1.kartinco.top/new/img/2021-10/13/vt6hk2bl39z5l89jh82fycjgk.jpg Скачать, смотреть онлайн Последний день Земли бесплантно в хорошем качестве Описание: Будущее. Навстречу Земле летит Красная луна. Столкновение грозит гибелью всему живому. Единственная надежда человечества — ... 9.8 10 8
Торрент: Зарегистрирован [2021-10-13 18:30] · скачан: 50 раз
Статус: √ проверено
Размер: 710 MB
Как cкачать? Как скачать Последний день Земли через торрент | UTorrent

% Раздел Тема Автор DL S | L
Фильмы (Blu-ray, BD-Remux, HDDVD) [ 13.75 GB ] Последний день Земли / Le dernier voyage [2020 BD Remux 1080p] DUB bober100 Скачать
4 | 0
Фильмы [HD 720p, 1080p] (Хороший звук DUB, MVO) [ 4.53 GB ] Последний день Земли / Le dernier voyage [2020 BDRip 720p] DUB | -=BIGBOSS=- Скачать
11 | 0
Фильмы [HD 720p, 1080p] (Хороший звук DUB, MVO) [ 9.33 GB ] Последний день Земли / Le dernier voyage [2020 BDRip 1080p] DUB bober100 Скачать
17 | 4
T Фильмы 2019-2020 [DVDrip, WEB-DLRip, HDrip] (DUB, MVO) [ 1.48 GB ] Последний день Земли / Le dernier voyage [2020 WEB-DLRip-AVC] DUB [Line Svoe Kino] от MediaBit Lithuania Скачать
6 | 0
T Фильмы 2019-2020 [DVDrip, WEB-DLRip, HDrip] (DUB, MVO) [ 1.46 GB ] Последний день Земли / Le dernier voyage [2020 BDRip] DUB [Прайм продакшн / Line] bober100 Скачать
23 | 0

28-11-2019 20:33  

Отключить всю рекламу на сайте

18-10-2021 18:13 Последний день Земли Скачать торрент  

муть голубая!!!!!!!!pb.wtf



    Дорогой пользователь! Огромная просьба, поблагодарите релизера, оцените раздачу и оставьте свои комментарий, если Вы скачали Последний день Земли через торрент бесплатно!
    Комментировать посты могут только пользователи прошедшие не сложную регистрацию
    Показать сообщения:    

    Последний день Земли через торрент
    Скачать бесплатно Последний день Земли
    Последний день Земли скачать торрент
    Последний день Земли смотреть онлайн
    Cкачать фильм Последний день Земли бесплатно
    Последний день Земли скачать торрент в хорошем качестве
    Последний день Земли смотреть онлайн бесплатно в хорошем качестве


    Вы не можете начинать темы
    Вы не можете отвечать на сообщения
    Вы не можете редактировать свои сообщения
    Вы не можете удалять свои сообщения
    Вы не можете голосовать в опросах
    Вы не можете прикреплять файлы к сообщениям
    Вы можете скачивать файлы