Присоединяйтесь к нам в Telegram!, здесь всегда актуальный адрес сайта, оперативная поддержка и многое другое!!

>

5.9

iTunes

7.4

iTunes

9.4

1 сезон

1

7.4

2 сезон

7.2

iTunes

7.3

1 сезон

13

6.1

iTunes

8.3

GOG

30

ULTIMATE

pack

9.9

Лицензия

ВАЖНО

ИГРА 18+

pack

7.3

RePack

MK11

7.7

RePack

jed

7.8

RePack

fifa19

8.5

RePack

RDR2

RePack

NEED FOR SPEED™ PAYBACK

5 сезон

9 сезон

Бесстыжие 9 сезон

Все сериалы

все сериалы на PB.wtf

RePack

FAR CRY 5

Anonymous, доброй ночи, мы катастрофически не успеваем собрать деньги на оплату серверов, помогите нам пожалуйста 5,10,15р., для нас важна любая помощь . В качестве благодарности мы отключим Вам всю рекламу на сайте (укажите свой ник в строку Ваше имя)!

×
  
Magnet ссылка

Время / Old (М. Найт Шьямалан) [2021, Триллер, драма, фантастика, HDRip-AVC] DUB [iTunes] от ExKinoRay pb.wtf

Время через торрент pb.wtf

Раздают: 5 [ 0 KB/s ]
Размер: 1.88 GB | Добавлен: 1 мес. 13 д. назад | Торрент скачан:189 раз
Смотреть онлайн Время | Скачать    Ребята, помогите собрать деньги на оплату серверов!!!

13-10-2021 19:00 Время Скачать торрент  


Время / Old
Информация о фильме:
Название: Время
Оригинальное название: Old
Год выхода: 2021
Жанр: триллер, драма, фантастика
Режиссер: М. Найт Шьямалан

В ролях: Гаэль Гарсиа Берналь, Вики Крипс, Руфус Сьюэлл, Кен Люн, Никки Амука-Бёрд, Эбби Ли, Аарон Пьер, Алекс Вулф, Эмбет Дэвидц, Элайза Сканлен

Описание: Отправившись в отпуск на тропический остров, семья с двумя детьми решает последовать совету менеджера отеля и посетить прекрасный уединенный пляж. Кроме них на пляже оказываются и другие постояльцы: семейство с маленькой дочкой, пара среднего возраста и популярный репер. Но вскоре расслабленный отдых сменяется паникой, когда компания обнаруживает труп и замечает, что дети вдруг начали очень быстро взрослеть.



Страна: США
Студия: Blinding Edge Pictures, Universal Pictures
Продолжительность: 01:48:27
Перевод: Дублированный - iTunes



Информация о файле:
Кодек: AVC
Формат: MKV
Качество: HDRip-AVC
Видео: MPEG-4 AVC, 1024x428, 23.976 fps, 1650 kbps
Аудио RU: AC3, 6 ch, 48 kHz, 384 kbps
Аудио EN: AC3, 6 ch, 48 kHz, 448 kbps
Субтитры: Русские (Forced, full), английские

x264 info: frame I:972 Avg QP:15.16 size: 76877
x264 info: frame P:35769 Avg QP:18.59 size: 19565
x264 info: frame B:119282 Avg QP:22.16 size: 4751
x264 info: consecutive B-frames: 2.5% 6.2% 8.3% 17.0% 14.8% 37.8% 6.0% 2.1% 2.1% 1.6% 1.6%
General
Unique ID : 158071794187175863259498330227422288601 (0x76EB852A70403FFB10C6299E78E45AD9)
Complete name : D:uTorrentРипы wolf1245.Old.2021.DUB.iTunes.HDRip-AVC.[wolf1245.ExKinoRay].mkv
Format : Matroska
Format version : Version 4
File size : 1.88 GiB
Duration : 1 h 48 min
Overall bit rate : 2 483 kb/s
Movie name : .Old.2021.DUB.iTunes.HDRip-AVC.[wolf1245.ExKinoRay]
Encoded date : UTC 2021-10-13 18:44:15
Writing application : mkvmerge v62.0.0 ('Apollo') 64-bit
Writing library : libebml v1.4.2 + libmatroska v1.6.4
Video
ID : 1
Format : AVC
Format/Info : Advanced Video Codec
Format profile : High@L4.1
Format settings : CABAC / 12 Ref Frames
Format settings, CABAC : Yes
Format settings, Reference frames : 12 frames
Codec ID : V_MPEG4/ISO/AVC
Duration : 1 h 48 min
Bit rate : 1 650 kb/s
Width : 1 024 pixels
Height : 428 pixels
Display aspect ratio : 2.40:1
Frame rate mode : Constant
Frame rate : 23.976 (24000/1001) FPS
Color space : YUV
Chroma subsampling : 4:2:0
Bit depth : 8 bits
Scan type : Progressive
Bits/(Pixel*Frame) : 0.157
Stream size : 1.25 GiB (66%)
Title : -=[wolf1245.ExKinoRay]=-
Writing library : x264 core 161 r3020 d198931
Encoding settings : cabac=1 / ref=12 / deblock=1:-3:-3 / analyse=0x3:0x133 / me=umh / subme=11 / psy=1 / psy_rd=1.00:0.05 / mixed_ref=1 / me_range=48 / chroma_me=1 / trellis=2 / 8x8dct=1 / cqm=0 / deadzone=21,11 / fast_pskip=1 / chroma_qp_offset=-3 / threads=10 / lookahead_threads=2 / sliced_threads=0 / nr=0 / decimate=1 / interlaced=0 / bluray_compat=0 / constrained_intra=0 / bframes=10 / b_pyramid=2 / b_adapt=2 / b_bias=0 / direct=3 / weightb=1 / open_gop=0 / weightp=2 / keyint=240 / keyint_min=24 / scenecut=40 / intra_refresh=0 / rc_lookahead=60 / rc=2pass / mbtree=1 / bitrate=1650 / ratetol=1.0 / qcomp=0.60 / qpmin=0 / qpmax=69 / qpstep=4 / cplxblur=20.0 / qblur=0.5 / vbv_maxrate=50000 / vbv_bufsize=62500 / nal_hrd=none / filler=0 / ip_ratio=1.40 / aq=1:0.80
Language : English
Default : Yes
Forced : No
Color range : Limited
Color primaries : BT.709
Transfer characteristics : BT.709
Matrix coefficients : BT.709
Audio #1
ID : 2
Format : AC-3
Format/Info : Audio Coding 3
Commercial name : Dolby Digital
Codec ID : A_AC3
Duration : 1 h 48 min
Bit rate mode : Constant
Bit rate : 384 kb/s
Channel(s) : 6 channels
Channel layout : L R C LFE Ls Rs
Sampling rate : 48.0 kHz
Frame rate : 31.250 FPS (1536 SPF)
Compression mode : Lossy
Stream size : 298 MiB (15%)
Title : iTunes | DUB
Language : Russian
Service kind : Complete Main
Default : Yes
Forced : No
Audio #2
ID : 3
Format : AC-3
Format/Info : Audio Coding 3
Commercial name : Dolby Digital
Codec ID : A_AC3
Duration : 1 h 48 min
Bit rate mode : Constant
Bit rate : 448 kb/s
Channel(s) : 6 channels
Channel layout : L R C LFE Ls Rs
Sampling rate : 48.0 kHz
Frame rate : 31.250 FPS (1536 SPF)
Compression mode : Lossy
Stream size : 348 MiB (18%)
Title : Original
Language : English
Service kind : Complete Main
Default : No
Forced : No
Text #1
ID : 4
Format : UTF-8
Codec ID : S_TEXT/UTF8
Codec ID/Info : UTF-8 Plain Text
Duration : 1 h 42 min
Bit rate : 0 b/s
Count of elements : 4
Stream size : 93.0 Bytes (0%)
Title : Forced
Language : Russian
Default : Yes
Forced : Yes
Text #2
ID : 5
Format : UTF-8
Codec ID : S_TEXT/UTF8
Codec ID/Info : UTF-8 Plain Text
Duration : 1 h 42 min
Bit rate : 81 b/s
Count of elements : 1290
Stream size : 60.8 KiB (0%)
Title : Full
Language : Russian
Default : No
Forced : No
Text #3
ID : 6
Format : UTF-8
Codec ID : S_TEXT/UTF8
Codec ID/Info : UTF-8 Plain Text
Duration : 1 h 39 min
Bit rate : 52 b/s
Count of elements : 1201
Stream size : 38.3 KiB (0%)
Title : Full
Language : English
Default : No
Forced : No
Text #4
ID : 7
Format : UTF-8
Codec ID : S_TEXT/UTF8
Codec ID/Info : UTF-8 Plain Text
Duration : 1 h 43 min
Bit rate : 58 b/s
Count of elements : 1415
Stream size : 44.7 KiB (0%)
Title : SDH
Language : English
Default : No
Forced : No
Menu
00:00:00.000 : :Chapter 01
00:05:50.100 : :Chapter 02
00:13:46.617 : :Chapter 03
00:18:35.448 : :Chapter 04
00:23:05.676 : :Chapter 05
00:28:33.045 : :Chapter 06
00:32:43.420 : :Chapter 07
00:38:01.654 : :Chapter 08
00:43:25.895 : :Chapter 09
00:47:54.371 : :Chapter 10
00:53:05.808 : :Chapter 11
01:01:32.939 : :Chapter 12
01:05:11.366 : :Chapter 13
01:08:52.337 : :Chapter 14
01:12:44.068 : :Chapter 15
01:18:59.568 : :Chapter 16
01:23:29.796 : :Chapter 17
01:29:13.223 : :Chapter 18
01:34:26.619 : :Chapter 19
01:41:18.281 : :Chapter 20
Релиз от:
Автор релиза:
pb.wtf



Скачать Время через торрент https://i115.fastpic.org/big/2021/1013/50/cc8868199930266baeac05667a83e050.jpg Скачать, смотреть онлайн Время бесплантно в хорошем качестве Описание: Отправившись в отпуск на тропический остров, семья с двумя детьми решает последовать совету менеджера отеля и посетить ... 10 10 7
Торрент: Зарегистрирован [2021-10-13 19:00] · скачан: 189 раз
Статус: √ проверено
Размер: 1.88 GB
Как cкачать? Как скачать Время через торрент | UTorrent

28-11-2019 20:33  

Отключить всю рекламу на сайте

    Дорогой пользователь! Огромная просьба, поблагодарите релизера, оцените раздачу и оставьте свои комментарий, если Вы скачали Время через торрент бесплатно!
    Комментировать посты могут только пользователи прошедшие не сложную регистрацию
    Показать сообщения:    

    Время через торрент
    Скачать бесплатно Время
    Время скачать торрент
    Время смотреть онлайн
    Cкачать фильм Время бесплатно
    Время скачать торрент в хорошем качестве
    Время смотреть онлайн бесплатно в хорошем качестве


    Вы не можете начинать темы
    Вы не можете отвечать на сообщения
    Вы не можете редактировать свои сообщения
    Вы не можете удалять свои сообщения
    Вы не можете голосовать в опросах
    Вы не можете прикреплять файлы к сообщениям
    Вы можете скачивать файлы