Anonymous, добрый вечер, присоединяйтесь к нам в Telegram!, здесь всегда актуальный адрес сайта, оперативная поддержка и многое другое!

>

5.6

iTunes

7.4

iTunes

7.9

MVO

1

7.7

1 сезон

6.8

iTunes

7.3

1 сезон

13

6.7

1 сезон

8.3

RePack

30

PREMIUM

pack

9.9

Лицензия

ВАЖНО

ИГРА 18+

pack

7.3

RePack

MK11

7.7

RePack

jed

7.8

RePack

fifa19

8.5

RePack

RDR2

RePack

NEED FOR SPEED™ PAYBACK

4 сезон

9 сезон

Бесстыжие 9 сезон

Все сериалы

все сериалы на PB.wtf

RePack

FAR CRY 5

Anonymous, добрый вечер, мы катастрофически не успеваем собрать деньги на оплату серверов, помогите нам пожалуйста 5,10,15р., для нас важна любая помощь . В качестве благодарности мы отключим Вам всю рекламу на сайте (укажите свой ник в строку Ваше имя)!

×
  
Magnet ссылка

Самка богомола / Сезон: 1 / Серии: 1-2 из 8 (Нурбек Эген) [2021, Триллер, драма, детектив, WEBRip 720p] pb.wtf

Самка богомола через торрент pb.wtf

Раздают: 3 [ 8 KB/s ]
Размер: 2.17 GB | Добавлен: 6 д. назад | Торрент скачан:19 раз
Смотреть онлайн Самка богомола | Скачать    Ребята, помогите собрать деньги на оплату серверов!!!

13-10-2021 21:14 Самка богомола Скачать торрент  

Самка богомола
Год выпуска: 2021
Страна: Россия
Студия: ООО «Старт Студио», «Профит»
Жанр: Триллер, драма, детектив
Продолжительность: ~ 00:50:00
Перевод: Не требуется
Субтитры: отсутствуют

Режиссер: Нурбек Эген



В ролях: Ирина Розанова, Павел Чинарёв, Ольга Сутулова, Екатерина Кузнецова (II), Сабина Ахмедова, Александр Марин, Сергей Заморев, Виктория Агалакова, Арсений Мыцык, Кирилл Букин, Дмитрий Мальков, Игорь Девлекамов, Сергей Шоколов, Андрей Некрасов (II), Вера Плешанова, Ростислав Харин, Владислав Орлов (II), Сергей Занин, Никита Крахмалёв, Иван Капорин, Анна Щетинина

Описание: Серийная убийца Жанна Дронова по прозвищу «самка богомола» отбывает срок в колонии строгого режима с тех пор, как призналась в восьми особо жестоких убийствах. Жанна убивала только мужчин — педофилов, насильников и неверных мужей. Узнав, что у нее появился подражатель, женщина предлагает полиции помощь при соблюдении двух условий. Первое: она покинет колонию на время расследования. Второе: делом будет заниматься ее сын Денис, который не общался с матерью последние 20 лет.

Качество: WEBRip 720p
Формат: MKV

Видео: MPEG-4 AVC, 1280x720, ~ 3000 Кбит/с, 0.130 bit/pixel, 25 Кадр/с
Аудио: 48.0 kHz, AC3 Dolby Digital, 2/0 (L,R) ch, ~ 192 kbps
скриншот  скриншот  скриншот  скриншот  

Общее
Уникальный идентификатор : 259624396477122801948101233527469470398 (0xC351D706C2288F4473516766CF1D72BE)
Полное имя : D:Samka.bogomola.2021.WEB-DL.720pSamka.bogomola.E01.2021.WEB-DL.720p.mkv
Формат : Matroska
Версия формата : Version 4
Размер файла : 1,12 Гбайт
Продолжительность : 50 м. 15 с.
Общий поток : 3 195 Кбит/сек
Название фильма : Samka.bogomola.E01.2021.WEB-DL.720p
Дата кодирования : UTC 2021-10-13 20:56:20
Программа кодирования : mkvmerge v62.0.0 ('Apollo') 64-bit
Библиотека кодирования : libebml v1.4.2 + libmatroska v1.6.4
Attachments : poster.jpg

Видео
Идентификатор : 1
Формат : AVC
Формат/Информация : Advanced Video Codec
Профиль формата : High@L3.1
Настройки формата : CABAC / 4 Ref Frames
Параметр CABAC формата : Да
Параметр RefFrames формата : 4 кадра
Идентификатор кодека : V_MPEG4/ISO/AVC
Продолжительность : 50 м. 15 с.
Битрейт : 3 000 Кбит/сек
Ширина : 1 280 пикселей
Высота : 720 пикселей
Соотношение сторон : 16:9
Режим частоты кадров : Постоянный
Частота кадров : 25,000 кадров/сек
Цветовое пространство : YUV
Субдискретизация насыщенности : 4:2:0
Битовая глубина : 8 бит
Тип развёртки : Прогрессивная
Бит/(Пиксели*Кадры) : 0.130
Размер потока : 1,05 Гбайт (94%)
Библиотека кодирования : x264 core 152
Настройки программы : cabac=1 / ref=2 / deblock=1:0:0 / analyse=0x3:0x113 / me=hex / subme=6 / psy=1 / psy_rd=1.00:0.00 / mixed_ref=1 / me_range=16 / chroma_me=1 / trellis=1 / 8x8dct=1 / cqm=0 / deadzone=21,11 / fast_pskip=1 / chroma_qp_offset=-2 / threads=12 / lookahead_threads=2 / sliced_threads=0 / nr=0 / decimate=1 / interlaced=0 / bluray_compat=0 / constrained_intra=0 / bframes=3 / b_pyramid=2 / b_adapt=1 / b_bias=0 / direct=1 / weightb=1 / open_gop=0 / weightp=1 / keyint=250 / keyint_min=25 / scenecut=40 / intra_refresh=0 / rc_lookahead=30 / rc=abr / mbtree=1 / bitrate=3000 / ratetol=1.0 / qcomp=0.60 / qpmin=0 / qpmax=69 / qpstep=4 / vbv_maxrate=3600 / vbv_bufsize=7200 / nal_hrd=none / filler=0 / ip_ratio=1.40 / aq=1:1.00
Default : Да
Forced : Нет
Цветовой диапазон : Limited
Основные цвета : BT.709
Характеристики трансфера : BT.709
Коэффициенты матрицы : BT.709

Аудио
Идентификатор : 2
Формат : AC-3
Формат/Информация : Audio Coding 3
Коммерческое название : Dolby Digital
Идентификатор кодека : A_AC3
Продолжительность : 50 м. 15 с.
Вид битрейта : Постоянный
Битрейт : 192 Кбит/сек
Каналы : 2 канала
Channel layout : L R
Частота : 48,0 КГц
Частота кадров : 31,250 кадров/сек (1536 SPF)
Метод сжатия : С потерями
Задержка видео : -80 мс.
Размер потока : 69,0 Мбайт (6%)
Язык : Russian
Service kind : Complete Main
Default : Да
Forced : Нет

Внимание! Раздача ведётся путём добавления новых серий; при каждом добавлении создаётся новый торрент.
Чтобы начать докачку новой серии, пользователям необходимо сделать следующее:
1. Остановить скачивание;
2. Удалить старый торрент у себя из клиента (старые серии удалять не надо);
3. Скачать новый торрент и запустить его у себя в клиенте вместо старого, при этом указать клиенту путь в старую папку куда и должно происходить скачивание новых серий. Ваш клиент при этом должен произвести хеширование (проверку) старой папки и будет докачивать только те серии, которых у вас ещё нет. Старые серии при этом не удаляются, а продолжают раздаваться! Eсли вы уже удалили старые серии, то предотвратить повторную закачку старых серий можно, отжав галочку в соответствующих местах при запуске нового торрента.

pb.wtf



Скачать Самка богомола через торрент https://c.radikal.ru/c39/2110/1e/390b302ed94d.jpg Скачать, смотреть онлайн Самка богомола бесплантно в хорошем качестве Описание: Серийная убийца Жанна Дронова по прозвищу «самка богомола» отбывает срок в колонии строгого режима с тех пор, как призналась в ... 7 10 3
Торрент: Зарегистрирован [2021-10-13 21:33] · скачан: 19 раз
Статус: √ проверено
Размер: 2.17 GB
Как cкачать? Как скачать Самка богомола через торрент | UTorrent

% Раздел Тема Автор DL S | L
Наши сериалы [ 1.22 GB ] Самка богомола / Сезон: 1 / Серии: 1-2 из 8 [2021 WEBRip-AVC] bober100 Скачать
7 | 0
Наши сериалы [ 1.26 GB ] Самка богомола / Сезон: 1 / Серии: 1-2 из 8 [2021 WEBRip] bober100 Скачать
10 | 0
Наши сериалы [ 4.51 GB ] Самка богомола / Сезон: 1 / Серии: 1-2 из 8 [2021 WEBRip 1080p] bober100 Скачать
8 | 1

28-11-2019 20:33  

Отключить всю рекламу на сайте

    Дорогой пользователь! Огромная просьба, поблагодарите релизера, оцените раздачу и оставьте свои комментарий, если Вы скачали Самка богомола через торрент бесплатно!
    Комментировать посты могут только пользователи прошедшие не сложную регистрацию
    Показать сообщения:    

    Самка богомола через торрент
    Скачать бесплатно Самка богомола
    Самка богомола скачать торрент
    Самка богомола смотреть онлайн
    Cкачать фильм Самка богомола бесплатно
    Самка богомола скачать торрент в хорошем качестве
    Самка богомола смотреть онлайн бесплатно в хорошем качестве


    Вы не можете начинать темы
    Вы не можете отвечать на сообщения
    Вы не можете редактировать свои сообщения
    Вы не можете удалять свои сообщения
    Вы не можете голосовать в опросах
    Вы не можете прикреплять файлы к сообщениям
    Вы можете скачивать файлы