Anonymous, добрый день, присоединяйтесь к нам в Telegram!, здесь всегда актуальный адрес сайта, оперативная поддержка и многое другое!

>

5.6

iTunes

7.4

iTunes

7.9

MVO

1

7.7

1 сезон

6.8

iTunes

7.3

1 сезон

13

6.7

1 сезон

8.3

RePack

30

ULTIMATE

pack

9.9

Лицензия

ВАЖНО

ИГРА 18+

pack

7.3

RePack

MK11

7.7

RePack

jed

7.8

RePack

fifa19

8.5

RePack

RDR2

RePack

NEED FOR SPEED™ PAYBACK

4 сезон

9 сезон

Бесстыжие 9 сезон

Все сериалы

все сериалы на PB.wtf

RePack

FAR CRY 5

Anonymous, добрый день, мы катастрофически не успеваем собрать деньги на оплату серверов, помогите нам пожалуйста 5,10,15р., для нас важна любая помощь . В качестве благодарности мы отключим Вам всю рекламу на сайте (укажите свой ник в строку Ваше имя)!

×
  
Magnet ссылка

Самка богомола / Сезон: 1 / Серии: 1-2 из 8 (Нурбек Эген) [2021, Триллер, драма, детектив, WEBRip] pb.wtf

Самка богомола через торрент pb.wtf

Раздают: 10 [ 19 KB/s ]
Размер: 1.26 GB | Добавлен: 6 д. назад | Торрент скачан:40 раз
Смотреть онлайн Самка богомола | Скачать    Ребята, помогите собрать деньги на оплату серверов!!!

13-10-2021 21:31 Самка богомола Скачать торрент  

Самка богомола
Год выпуска: 2021
Страна: Россия
Студия: ООО «Старт Студио», «Профит»
Жанр: Триллер, драма, детектив
Продолжительность: ~ 00:50:00
Перевод: Не требуется
Субтитры: отсутствуют

Режиссер: Нурбек Эген



В ролях: Ирина Розанова, Павел Чинарёв, Ольга Сутулова, Екатерина Кузнецова (II), Сабина Ахмедова, Александр Марин, Сергей Заморев, Виктория Агалакова, Арсений Мыцык, Кирилл Букин, Дмитрий Мальков, Игорь Девлекамов, Сергей Шоколов, Андрей Некрасов (II), Вера Плешанова, Ростислав Харин, Владислав Орлов (II), Сергей Занин, Никита Крахмалёв, Иван Капорин, Анна Щетинина

Описание: Серийная убийца Жанна Дронова по прозвищу «самка богомола» отбывает срок в колонии строгого режима с тех пор, как призналась в восьми особо жестоких убийствах. Жанна убивала только мужчин — педофилов, насильников и неверных мужей. Узнав, что у нее появился подражатель, женщина предлагает полиции помощь при соблюдении двух условий. Первое: она покинет колонию на время расследования. Второе: делом будет заниматься ее сын Денис, который не общался с матерью последние 20 лет.

Качество: WEBRip
Формат: AVI

Видео: XviD, 720x360, ~ 1650 Кбит/с, 0.255 bit/pixel, 25 Кадр/с
Аудио: 48.0 kHz, AC3 Dolby Digital, 2/0 (L,R) ch, ~ 192 kbps
скриншот  скриншот  скриншот  скриншот  

Общее
Полное имя : D:\Samka.bogomola.2021.WEB-DLRip.25Kuzmich\Samka.bogomola.e01.WEB-DLRip.25Kuzmich.avi
Формат : AVI
Формат/Информация : Audio Video Interleave
Размер файла : 666 Мбайт
Продолжительность : 50 м. 15 с.
Общий поток : 1 852 Кбит/сек
Программа кодирования : VirtualDubMod 1.5.10.3 | www.virtualdub-fr.org || (build 2550/release)
Библиотека кодирования : VirtualDubMod build 2550/release

Видео
Идентификатор : 0
Формат : MPEG-4 Visual
Профиль формата : Advanced Simple@L5
Настройки формата : BVOP1
Параметр BVOP формата : 1
Параметр QPel формата : Нет
Параметр GMC формата : Без точки перехода
Параметр матрицы формата : Default (MPEG)
Идентификатор кодека : XVID
Идентификатор кодека/Подсказка : XviD
Продолжительность : 50 м. 15 с.
Битрейт : 1 650 Кбит/сек
Ширина : 720 пикселей
Высота : 360 пикселей
Соотношение сторон : 2,000
Частота кадров : 25,000 кадров/сек
Цветовое пространство : YUV
Субдискретизация насыщенности : 4:2:0
Битовая глубина : 8 бит
Тип развёртки : Прогрессивная
Метод сжатия : С потерями
Бит/(Пиксели*Кадры) : 0.255
Размер потока : 593 Мбайт (89%)
Библиотека кодирования : XviD 73

Аудио
Идентификатор : 1
Формат : AC-3
Формат/Информация : Audio Coding 3
Коммерческое название : Dolby Digital
Идентификатор кодека : 2000
Продолжительность : 50 м. 15 с.
Вид битрейта : Постоянный
Битрейт : 192 Кбит/сек
Каналы : 2 канала
Channel layout : L R
Частота : 48,0 КГц
Частота кадров : 31,250 кадров/сек (1536 SPF)
Метод сжатия : С потерями
Размер потока : 69,0 Мбайт (10%)
Выравнивание : Разделение по промежуткам
Продолжительность промежутка : 40 мс. (1,00 видеокадр)
Время предзагрузки промежутка : 500 мс.
Service kind : Complete Main

Внимание! Раздача ведётся путём добавления новых серий; при каждом добавлении создаётся новый торрент.
Чтобы начать докачку новой серии, пользователям необходимо сделать следующее:
1. Остановить скачивание;
2. Удалить старый торрент у себя из клиента (старые серии удалять не надо);
3. Скачать новый торрент и запустить его у себя в клиенте вместо старого, при этом указать клиенту путь в старую папку куда и должно происходить скачивание новых серий. Ваш клиент при этом должен произвести хеширование (проверку) старой папки и будет докачивать только те серии, которых у вас ещё нет. Старые серии при этом не удаляются, а продолжают раздаваться! Eсли вы уже удалили старые серии, то предотвратить повторную закачку старых серий можно, отжав галочку в соответствующих местах при запуске нового торрента.

pb.wtf



Скачать Самка богомола через торрент https://c.radikal.ru/c39/2110/1e/390b302ed94d.jpg Скачать, смотреть онлайн Самка богомола бесплантно в хорошем качестве Описание: Серийная убийца Жанна Дронова по прозвищу «самка богомола» отбывает срок в колонии строгого режима с тех пор, как призналась в ... 10 10 5
Торрент: Зарегистрирован [2021-10-13 21:45] · скачан: 40 раз
Статус: √ проверено
Размер: 1.26 GB
Как cкачать? Как скачать Самка богомола через торрент | UTorrent

% Раздел Тема Автор DL S | L
Наши сериалы [ 1.22 GB ] Самка богомола / Сезон: 1 / Серии: 1-2 из 8 [2021 WEBRip-AVC] bober100 Скачать
9 | 0
Наши сериалы [ 4.51 GB ] Самка богомола / Сезон: 1 / Серии: 1-2 из 8 [2021 WEBRip 1080p] bober100 Скачать
8 | 1
Наши сериалы [ 2.17 GB ] Самка богомола / Сезон: 1 / Серии: 1-2 из 8 [2021 WEBRip 720p] bober100 Скачать
2 | 0

28-11-2019 20:33  

Отключить всю рекламу на сайте

    Дорогой пользователь! Огромная просьба, поблагодарите релизера, оцените раздачу и оставьте свои комментарий, если Вы скачали Самка богомола через торрент бесплатно!
    Комментировать посты могут только пользователи прошедшие не сложную регистрацию
    Показать сообщения:    

    Самка богомола через торрент
    Скачать бесплатно Самка богомола
    Самка богомола скачать торрент
    Самка богомола смотреть онлайн
    Cкачать фильм Самка богомола бесплатно
    Самка богомола скачать торрент в хорошем качестве
    Самка богомола смотреть онлайн бесплатно в хорошем качестве


    Вы не можете начинать темы
    Вы не можете отвечать на сообщения
    Вы не можете редактировать свои сообщения
    Вы не можете удалять свои сообщения
    Вы не можете голосовать в опросах
    Вы не можете прикреплять файлы к сообщениям
    Вы можете скачивать файлы