Anonymous, добрый день, присоединяйтесь к нам в Telegram!, здесь всегда актуальный адрес сайта, оперативная поддержка и многое другое!

>

5.6

iTunes

7.4

iTunes

7.9

MVO

1

7.7

1 сезон

6.8

iTunes

7.3

1 сезон

13

6.7

1 сезон

8.3

RePack

30

ULTIMATE

pack

9.9

Лицензия

ВАЖНО

ИГРА 18+

pack

7.3

RePack

MK11

7.7

RePack

jed

7.8

RePack

fifa19

8.5

RePack

RDR2

RePack

NEED FOR SPEED™ PAYBACK

4 сезон

9 сезон

Бесстыжие 9 сезон

Все сериалы

все сериалы на PB.wtf

RePack

FAR CRY 5

Anonymous, добрый день, мы катастрофически не успеваем собрать деньги на оплату серверов, помогите нам пожалуйста 5,10,15р., для нас важна любая помощь . В качестве благодарности мы отключим Вам всю рекламу на сайте (укажите свой ник в строку Ваше имя)!

×
  
Magnet ссылка

Босс-молокосос 2 / The Boss Baby: Family Business (Том МакГрат) [2021, Мультфильм, комедия, приключения, семейный, BDRip 720p] DUB [Пифагор] pb.wtf

Босс-молокосос 2 через торрент pb.wtf

Раздают: 4 [ 46 KB/s ] Качают: 1 [ 0 KB/s ]
Размер: 6.62 GB | Добавлен: 6 д. назад | Торрент скачан:52 раза
Смотреть онлайн Босс-молокосос 2 | Скачать    Ребята, помогите собрать деньги на оплату серверов!!!

13-10-2021 21:43 Босс-молокосос 2 Скачать торрент  

Босс-молокосос 2
The Boss Baby: Family Business

Год выпуска: 2021
Страна: США
Студия: DreamWorks Animation
Жанр: Мультфильм, комедия, приключения, семейный
Продолжительность: 01:47:12
Перевод: Дублированный | Пифагор
Субтитры: Русские (2 x Full), английские

Режиссер: Том МакГрат

rating

В ролях: Алек Болдуин, Эми Седарис, Джеймс Марсден, Джефф Голдблюм, Лиза Кудроу, Ева Лонгория, Джеймс МакГрат, Ариана Гринблатт, Джимми Киммел

Описание: Братья Темплтон выросли и отдалились друг от друга. Но все меняется с появлением нового босса-молокососа с суперсовременным подходом, который воссоединяет семью и вдохновляет героев на новые бизнес-свершения.

Качество: BDRip 720p
Формат: MKV

Видео: MPEG-4 AVC, 1280x536, 7304 Kbit/s, 23.976 fps
Аудио #01: 48 kHz, E-AC3, 5.1, 448 Kbps | Дублированный | Пифагор | RUS |
Аудио #02: 48 kHz, AC3, 5.1, 448 Kbps | Дублированный | Пифагор | RUS |
Аудио #03: 48 kHz, AC3, 5.1, 640 Kbps | Оригинал | ENG |
скриншот  скриншот  скриншот  скриншот  скриншот  

General
Unique ID : 138790730400047656008664253196672772270 (0x686A1F5383C18A33D2AC03AC98B928AE)
Complete name : E:VideoThe.Boss.Baby.Family.Business.2021.BDRip.720p.seleZen.mkv
Format : Matroska
Format version : Version 4
File size : 6.62 GiB
Duration : 1 h 47 min
Overall bit rate : 8 838 kb/s
Movie name : The Boss Bab Family Business 2021 from seleZen
Encoded date : UTC 2021-10-13 21:34:18
Writing application : mkvmerge v59.0.0 ('Shining Star') 64-bit
Writing library : libebml v1.4.2 + libmatroska v1.6.4

Video
ID : 1
Format : AVC
Format/Info : Advanced Video Codec
Format profile : High@L4.1
Format settings : CABAC / 12 Ref Frames
Format settings, CABAC : Yes
Format settings, Reference frames : 12 frames
Codec ID : V_MPEG4/ISO/AVC
Duration : 1 h 47 min
Bit rate : 7 304 kb/s
Width : 1 280 pixels
Height : 536 pixels
Display aspect ratio : 2.40:1
Frame rate mode : Constant
Frame rate : 23.976 (24000/1001) FPS
Color space : YUV
Chroma subsampling : 4:2:0
Bit depth : 8 bits
Scan type : Progressive
Bits/(Pixel*Frame) : 0.444
Stream size : 5.47 GiB (83%)
Title : playHD
Writing library : x264 core 161 r3048+53M t_mod ~~~~~~~ Just us ~ JigSaw & droops16 ~
Encoding settings : cabac=1 / ref=12 / deblock=1:-3:-3 / analyse=0x3:0x133 / me=umh / subme=10 / psy=1 / fade_compensate=0.00 / psy_rd=1.00:0.00 / mixed_ref=1 / me_range=32 / chroma_me=1 / trellis=2 / 8x8dct=1 / cqm=0 / deadzone=21,11 / fast_pskip=0 / chroma_qp_offset=-2 / threads=12 / lookahead_threads=2 / sliced_threads=0 / nr=0 / decimate=0 / interlaced=0 / bluray_compat=0 / constrained_intra=0 / fgo=0 / bframes=9 / b_pyramid=2 / b_adapt=2 / b_bias=0 / direct=3 / weightb=1 / open_gop=0 / weightp=2 / keyint=250 / keyint_min=23 / scenecut=40 / intra_refresh=0 / rc=crf / mbtree=0 / crf=13.8000 / qcomp=0.60 / qpmin=0:0:0 / qpmax=69:69:69 / qpstep=4 / ip_ratio=1.30 / pb_ratio=1.20 / aq=3:0.90 / aq-sensitivity=10.00 / aq-factor=1.00:1.00:1.00 / aq2=0 / aq3=0 / zones=3072,3078,crf=12.8/3627,3978,crf=12.8/41636,41705,crf=13
Language : English
Default : Yes
Forced : No

Audio #1
ID : 2
Format : E-AC-3
Format/Info : Enhanced AC-3
Commercial name : Dolby Digital Plus
Codec ID : A_EAC3
Duration : 1 h 47 min
Bit rate mode : Constant
Bit rate : 448 kb/s
Channel(s) : 6 channels
Channel layout : L R C LFE Ls Rs
Sampling rate : 48.0 kHz
Frame rate : 31.250 FPS (1536 SPF)
Compression mode : Lossy
Stream size : 344 MiB (5%)
Title : Dub
Language : Russian
Service kind : Complete Main
Default : Yes
Forced : Yes

Audio #2
ID : 3
Format : AC-3
Format/Info : Audio Coding 3
Commercial name : Dolby Digital
Codec ID : A_AC3
Duration : 1 h 47 min
Bit rate mode : Constant
Bit rate : 448 kb/s
Channel(s) : 6 channels
Channel layout : L R C LFE Ls Rs
Sampling rate : 48.0 kHz
Frame rate : 31.250 FPS (1536 SPF)
Compression mode : Lossy
Stream size : 344 MiB (5%)
Title : Dub
Language : Russian
Service kind : Complete Main
Default : No
Forced : No

Audio #3
ID : 4
Format : AC-3
Format/Info : Audio Coding 3
Commercial name : Dolby Digital
Codec ID : A_AC3
Duration : 1 h 47 min
Bit rate mode : Constant
Bit rate : 640 kb/s
Channel(s) : 6 channels
Channel layout : L R C LFE Ls Rs
Sampling rate : 48.0 kHz
Frame rate : 31.250 FPS (1536 SPF)
Compression mode : Lossy
Stream size : 491 MiB (7%)
Title : Original
Language : English
Service kind : Complete Main
Default : No
Forced : No

Text #1
ID : 5
Format : UTF-8
Codec ID : S_TEXT/UTF8
Codec ID/Info : UTF-8 Plain Text
Duration : 1 h 38 min
Bit rate : 131 b/s
Count of elements : 1815
Stream size : 94.9 KiB (0%)
Title : Full v.1
Language : Russian
Default : No
Forced : No

Text #2
ID : 6
Format : UTF-8
Codec ID : S_TEXT/UTF8
Codec ID/Info : UTF-8 Plain Text
Duration : 1 h 37 min
Bit rate : 129 b/s
Count of elements : 1945
Stream size : 92.6 KiB (0%)
Title : Full v.2
Language : Russian
Default : No
Forced : No

Text #3
ID : 7
Format : UTF-8
Codec ID : S_TEXT/UTF8
Codec ID/Info : UTF-8 Plain Text
Duration : 1 h 45 min
Bit rate : 83 b/s
Count of elements : 2462
Stream size : 65.1 KiB (0%)
Language : English
Default : No
Forced : No

Menu
00:00:00.000 : Chapter 01
00:04:18.383 : Chapter 02
00:09:50.673 : Chapter 03
00:13:43.364 : Chapter 04
00:19:51.816 : Chapter 05
00:24:55.119 : Chapter 06
00:29:12.125 : Chapter 07
00:34:22.018 : Chapter 08
00:38:09.245 : Chapter 09
00:44:36.299 : Chapter 10
00:51:25.124 : Chapter 11
01:00:47.853 : Chapter 12
01:04:54.474 : Chapter 13
01:08:08.209 : Chapter 14
01:13:27.403 : Chapter 15
01:18:38.172 : Chapter 16
01:22:44.418 : Chapter 17
01:27:13.437 : Chapter 18
01:35:06.701 : Chapter 19
01:38:13.721 : Chapter 20

pb.wtf



Скачать Босс-молокосос 2 через торрент https://d.radikal.ru/d10/2110/be/323e8b99cf04.jpg Скачать, смотреть онлайн Босс-молокосос 2 бесплантно в хорошем качестве Описание: Братья Темплтон выросли и отдалились друг от друга. Но все меняется с появлением нового босса-молокососа с суперсовременным ... 10 10 3
Торрент: Зарегистрирован [2021-10-13 21:43] · скачан: 52 раз
Статус: √ проверено
Размер: 6.62 GB
Как cкачать? Как скачать Босс-молокосос 2 через торрент | UTorrent

% Раздел Тема Автор DL S | L
Иностранные мультфильмы [ 2.58 GB ] Босс-молокосос 2 / The Boss Baby: Family Business [2021 Мультфильм BDRip-AVC] DUB [Пифагор] от ExKinoRay Lithuania Скачать
7 | 0
Иностранные мультфильмы [ 1.46 GB ] Босс-молокосос 2 / The Boss Baby: Family Business [2021 Мультфильм BDRip] - [ / Пифагор] Twi7ter Скачать
77 | 10
Иностранные мультфильмы [ 1.46 GB ] Босс-молокосос 2 / The Boss Baby: Family Business [2021 Мультфильм WEB-DLRip ] DUB [Пифагор] bober100 Скачать
14 | 0
Иностранные мультфильмы [ 1.46 GB ] Босс-молокосос 2 / The Boss Baby: Family Business [2021 Мультфильм BDRip] DUB [Пифагор] bober100 Скачать
9 | 0
Иностранные мультфильмы [ 746 MB ] Босс-молокосос 2 / The Boss Baby: Family Business [2021 Мультфильм BDRip] DUB [Пифагор] bober100 Скачать
2 | 0
Зарубежные Мультфильмы (WEB-DL 720p, 1080p) [ 5.6 GB ] Босс-молокосос 2 / The Boss Baby: Family Business [2021 Мультфильм WEB-DL 1080p ] DUB [Пифагор] bober100 Скачать
27 | 0
Ultra HD (UHD: 2K, 4K, 8K) [ 40.75 GB ] Босс-молокосос 2 / The Boss Baby: Family Business [2021 Мультфильм UHD BDRemux 2160p ] DUB [Пифагор] bober100 Скачать
1 | 0

28-11-2019 20:33  

Отключить всю рекламу на сайте

    Дорогой пользователь! Огромная просьба, поблагодарите релизера, оцените раздачу и оставьте свои комментарий, если Вы скачали Босс-молокосос 2 через торрент бесплатно!
    Комментировать посты могут только пользователи прошедшие не сложную регистрацию
    Показать сообщения:    

    Босс-молокосос 2 через торрент
    Скачать бесплатно Босс-молокосос 2
    Босс-молокосос 2 скачать торрент
    Босс-молокосос 2 смотреть онлайн
    Cкачать фильм Босс-молокосос 2 бесплатно
    Босс-молокосос 2 скачать торрент в хорошем качестве
    Босс-молокосос 2 смотреть онлайн бесплатно в хорошем качестве


    Вы не можете начинать темы
    Вы не можете отвечать на сообщения
    Вы не можете редактировать свои сообщения
    Вы не можете удалять свои сообщения
    Вы не можете голосовать в опросах
    Вы не можете прикреплять файлы к сообщениям
    Вы можете скачивать файлы