Достать ножи: Стеклянная луковица

MVO

Добыча

Дубляж

Уэнсдэй

1 сезон

Тор

Дубляж

13 клиническая

1 сезон

Жестокая ночь

MVO

Одни из нас

1 сезон

Deluxe

pack

Рекомендуем

30

Пиратка

ВАЖНО

ВАЖНО

Ghostwire

Пиратка

jed

RePack

nioh2

RePack

RDR2

RePack

NEED FOR SPEED™ PAYBACK

RePack

скачать торрент

Кинопоиск HD

Острые козырьки 6 сезон

6 сезон

FAR CRY 6

RePack

скачать торрент

Лицензия

скачать торрент

MVO

1

1 сезон

скачать торрент

1 сезон

скачать торрент

Лицензия

  

Босс-молокосос 2 / The Boss Baby: Family Business (Том МакГрат) [2021, Мультфильм, комедия, приключения, семейный, WEB-DL 1080p, (Локализованная версия)] Дубляж [Пифагор]

Босс-молокосос 2 через торрент pb.wtf

Раздают: 1 [ 0 KB/s ]
Размер: 5.6 GB | Добавлен: 1 год 3 мес. назад | Торрент скачан:579 раз
Смотреть онлайн | Скачать | Поддержите нас   

14-10-2021 04:10 Босс-молокосос 2 Скачать торрент  

Босс-молокосос 2
The Boss Baby: Family Business

Год выпуска: 2021
Страна: США
Студия: DreamWorks Animation
Жанр: Мультфильм, комедия, приключения, семейный
Продолжительность: 01:47:12
Перевод: Дублированный | Пифагор
Субтитры: Русские (Full), английские

Режиссер: Том МакГрат

rating

В ролях: Алек Болдуин, Эми Седарис, Джеймс Марсден, Джефф Голдблюм, Лиза Кудроу, Ева Лонгория, Джеймс МакГрат, Ариана Гринблатт, Джимми Киммел

Описание: Братья Темплтон выросли и отдалились друг от друга. Но все меняется с появлением нового босса-молокососа с суперсовременным подходом, который воссоединяет семью и вдохновляет героев на новые бизнес-свершения.

Качество: WEB-DL 1080p | Локализованная версия
Формат: MKV

Видео: MPEG-4 AVC, 1920x804, 6000 Кbit/s, 23.976 fps
Аудио #01: 48 kHz, E-AC3, 5.1, 448 Kbps | Дублированный | Пифагор | RUS |
Аудио #02: 48 kHz, AC3, 5.1, 448 Kbps | Дублированный | Пифагор | RUS |
Аудио #03: 48 kHz, AC3, 5.1, 640 Kbps | Оригинал | ENG |
скриншот  скриншот  скриншот  скриншот  скриншот  

General
Unique ID : 197761097118993655230700570859134327546 (0x94C766E173DFF7E10A2BDFC5BEE91AFA)
Complete name : E:VideoThe.Boss.Baby.Family.Business.2021.Local.WEB-DL.1080p.seleZen.mkv
Format : Matroska
Format version : Version 4
File size : 5.60 GiB
Duration : 1 h 47 min
Overall bit rate : 7 479 kb/s
Movie name : The Boss Bab Family Business 2021 from seleZen
Encoded date : UTC 2021-10-13 23:08:52
Writing application : mkvmerge v59.0.0 ('Shining Star') 64-bit
Writing library : libebml v1.4.2 + libmatroska v1.6.4

Video
ID : 1
Format : AVC
Format/Info : Advanced Video Codec
Format profile : [email protected]
Format settings : CABAC / 5 Ref Frames
Format settings, CABAC : Yes
Format settings, Reference frames : 5 frames
Codec ID : V_MPEG4/ISO/AVC
Duration : 1 h 47 min
Bit rate : 6 000 kb/s
Width : 1 920 pixels
Height : 804 pixels
Display aspect ratio : 2.40:1
Frame rate mode : Constant
Frame rate : 23.976 (24000/1001) FPS
Color space : YUV
Chroma subsampling : 4:2:0
Bit depth : 8 bits
Scan type : Progressive
Bits/(Pixel*Frame) : 0.162
Stream size : 4.45 GiB (79%)
Writing library : x264 core 157
Encoding settings : cabac=1 / ref=5 / deblock=1:0:0 / analyse=0x3:0x133 / me=umh / subme=10 / psy=1 / psy_rd=1.00:0.00 / mixed_ref=1 / me_range=24 / chroma_me=1 / trellis=2 / 8x8dct=1 / cqm=0 / deadzone=21,11 / fast_pskip=1 / chroma_qp_offset=-2 / threads=25 / lookahead_threads=4 / sliced_threads=0 / nr=0 / decimate=1 / interlaced=0 / bluray_compat=0 / stitchable=1 / constrained_intra=0 / bframes=8 / b_pyramid=2 / b_adapt=2 / b_bias=0 / direct=3 / weightb=1 / open_gop=0 / weightp=2 / keyint=192 / keyint_min=96 / scenecut=40 / intra_refresh=0 / rc_lookahead=60 / rc=2pass / mbtree=1 / bitrate=6000 / ratetol=1.0 / qcomp=0.60 / qpmin=0 / qpmax=69 / qpstep=4 / cplxblur=20.0 / qblur=0.5 / vbv_maxrate=6600 / vbv_bufsize=9000 / nal_hrd=none / filler=0 / ip_ratio=1.40 / aq=1:1.00
Language : Russian
Default : Yes
Forced : No

Audio #1
ID : 2
Format : E-AC-3
Format/Info : Enhanced AC-3
Commercial name : Dolby Digital Plus
Codec ID : A_EAC3
Duration : 1 h 47 min
Bit rate mode : Constant
Bit rate : 448 kb/s
Channel(s) : 6 channels
Channel layout : L R C LFE Ls Rs
Sampling rate : 48.0 kHz
Frame rate : 31.250 FPS (1536 SPF)
Compression mode : Lossy
Stream size : 344 MiB (6%)
Title : Дубляж
Language : Russian
Service kind : Complete Main
Default : Yes
Forced : Yes

Audio #2
ID : 3
Format : AC-3
Format/Info : Audio Coding 3
Commercial name : Dolby Digital
Codec ID : A_AC3
Duration : 1 h 47 min
Bit rate mode : Constant
Bit rate : 448 kb/s
Channel(s) : 6 channels
Channel layout : L R C LFE Ls Rs
Sampling rate : 48.0 kHz
Frame rate : 31.250 FPS (1536 SPF)
Compression mode : Lossy
Stream size : 344 MiB (6%)
Title : Дубляж
Language : Russian
Service kind : Complete Main
Default : No
Forced : No

Audio #3
ID : 4
Format : AC-3
Format/Info : Audio Coding 3
Commercial name : Dolby Digital
Codec ID : A_AC3
Duration : 1 h 47 min
Bit rate mode : Constant
Bit rate : 640 kb/s
Channel(s) : 6 channels
Channel layout : L R C LFE Ls Rs
Sampling rate : 48.0 kHz
Frame rate : 31.250 FPS (1536 SPF)
Compression mode : Lossy
Stream size : 491 MiB (9%)
Title : English
Language : English
Service kind : Complete Main
Default : No
Forced : No

Text #1
ID : 5
Format : UTF-8
Codec ID : S_TEXT/UTF8
Codec ID/Info : UTF-8 Plain Text
Duration : 1 h 38 min
Bit rate : 131 b/s
Count of elements : 1815
Stream size : 94.9 KiB (0%)
Title : Full
Language : Russian
Default : No
Forced : No

Text #2
ID : 6
Format : UTF-8
Codec ID : S_TEXT/UTF8
Codec ID/Info : UTF-8 Plain Text
Duration : 1 h 45 min
Bit rate : 83 b/s
Count of elements : 2462
Stream size : 65.1 KiB (0%)
Language : English
Default : No
Forced : No

Menu
00:00:00.000 : Chapter 01
00:04:17.318 : Chapter 02
00:09:49.608 : Chapter 03
00:13:42.299 : Chapter 04
00:19:50.751 : Chapter 05
00:24:54.054 : Chapter 06
00:29:11.060 : Chapter 07
00:34:20.953 : Chapter 08
00:38:08.180 : Chapter 09
00:44:35.234 : Chapter 10
00:51:24.059 : Chapter 11
01:00:46.788 : Chapter 12
01:04:53.409 : Chapter 13
01:08:07.144 : Chapter 14
01:13:26.338 : Chapter 15
01:18:37.107 : Chapter 16
01:22:43.353 : Chapter 17
01:27:12.372 : Chapter 18
01:35:05.636 : Chapter 19
01:38:12.656 : Chapter 20




Скачать Босс-молокосос 2 через торрент https://i115.fastpic.org/big/2021/1014/21/da1d807ecd6d49a10409f4f7259e1c21.jpg Скачать, смотреть онлайн Босс-молокосос 2 бесплантно в хорошем качестве Описание: Братья Темплтон выросли и отдалились друг от друга. Но все меняется с появлением нового босса-молокососа с суперсовременным ... 10 10 15
Info! Золотая раздача, скачанное не засчитывается.
Торрент: Зарегистрирован [2021-10-14 04:10] · скачан: 579 раз
Статус: √ проверено
Размер: 5.6 GB
Как cкачать? Как скачать Босс-молокосос 2 через торрент | UTorrent

% Раздел Тема Автор DL S | L
3D Мультфильмы [ 6.33 GB ] Босс-молокосос 2 в 3D / The Boss Baby: Family Business in 3D | Дубляж | 1080p, Дубляж slaventi-69 Скачать
1 | 0
3D Мультфильмы [ 12.44 GB ] Босс-молокосос 2 в 3Д / The Boss Baby: Family Business 3D | Пифагор | 1080p serega768 Скачать
2 | 0
Мультфильмы (48-60 fps) [ 3.83 GB ] Босс-молокосос 2 / The Boss Baby: Family Business | Дубляж | DLRip 720p / 60 FPS slaventi-69 Скачать
2 | 1
Иностранные мультфильмы [ 1.46 GB ] Босс-молокосос 2 / The Boss Baby: Family Business | Лицензия | BDRip Twi7ter Скачать
45 | 1

28-11-2019 20:33  


Отключить вcю реклaмy на сайте, в т.ч. и в плеере онлайн просмотра!

    Дорогой пользователь! Огромная просьба, поблагодарите релизера, оцените раздачу и оставьте свои комментарий, если Вы скачали Босс-молокосос 2 через торрент бесплатно!!
    Комментировать посты могут только пользователи прошедшие не сложную регистрацию
    Показать сообщения:    


    Босс-молокосос 2 через торрент
    Скачать бесплатно Босс-молокосос 2
    Босс-молокосос 2 скачать торрент
    Босс-молокосос 2 смотреть онлайн
    Cкачать фильм Босс-молокосос 2 бесплатно
    Босс-молокосос 2 скачать торрент в хорошем качестве
    Босс-молокосос 2 смотреть онлайн бесплатно в хорошем качестве
    Вы не можете начинать темы
    Вы не можете отвечать на сообщения
    Вы не можете редактировать свои сообщения
    Вы не можете удалять свои сообщения
    Вы не можете голосовать в опросах
    Вы не можете прикреплять файлы к сообщениям
    Вы можете скачивать файлы
    Босс-молокосос 2 / The Boss Baby: Family Business [2021, Мультфильм, комедия, приключения, семейный, WEB-DL 1080p, ] Дубляж [Пифагор] смотреть онлайн, скачать торрент picoco.icu