Присоединяйтесь к нам в Telegram!, здесь всегда актуальный адрес сайта, оперативная поддержка и многое другое!!

>

5.9

iTunes

7.4

iTunes

9.4

1 сезон

1

7.4

2 сезон

7.2

iTunes

7.3

1 сезон

13

6.1

iTunes

8.3

GOG

30

ULTIMATE

pack

9.9

Лицензия

ВАЖНО

ИГРА 18+

pack

7.3

RePack

MK11

7.7

RePack

jed

7.8

RePack

fifa19

8.5

RePack

RDR2

RePack

NEED FOR SPEED™ PAYBACK

5 сезон

9 сезон

Бесстыжие 9 сезон

Все сериалы

все сериалы на PB.wtf

RePack

FAR CRY 5

Anonymous, добрый вечер, мы катастрофически не успеваем собрать деньги на оплату серверов, помогите нам пожалуйста 5,10,15р., для нас важна любая помощь . В качестве благодарности мы отключим Вам всю рекламу на сайте (укажите свой ник в строку Ваше имя)!

×
  
Magnet ссылка

Калейдоскоп ужасов / Creepshow / Сезон: 3 / Серии: 1-6 из 6 (Грег Никотеро, Джон Харрисон, Роксанна Бенжамин) [2021, Ужасы, фэнтези, комедия, фантастика, WEB-DL 1080p] DVO [Кубик в Кубе] pb.wtf

Калейдоскоп ужасов через торрент pb.wtf

Раздают: 3 [ 49 KB/s ] Качают: 1 [ 0 KB/s ]
Размер: 17.25 GB | Добавлен: 1 мес. назад | Торрент скачан:34 раза
Смотреть онлайн Калейдоскоп ужасов | Скачать    Ребята, помогите собрать деньги на оплату серверов!!!

14-10-2021 17:07 Калейдоскоп ужасов Скачать торрент  

Калейдоскоп ужасов | Creepshow
Год выпуска: 2021
Страна: США
Выпущено: Cartel Pictures, Monster Agency Productions, Striker Entertainment
Жанр: Ужасы, фэнтези, комедия, фантастика
Продолжительность: ~ 00:46:00 серия
Перевод: Профессиональный (двухголосый) | Кубик в Кубе
Субтитры: Русские (Full), английские (SDH)

Режиссер: Грег Никотеро, Джон Харрисон, Роксанна Бенжамин

rating

В ролях: Ханна Бэйрфут, Брюс Дэвисон, Логан Аллен, Дэвид Аркетт, Эдриенн Барбо, Тобин Белл, Биг Бой, Нельсон Бонилья, Трэйси Боннер, Мэдисон Бейли, Джесси Бойд

Описание: «Калейдоскоп ужасов» возвращается с размахом, на этот раз не на большом экране, а на Shudder, молодом потоковом сервисе, принадлежащем кабельному каналу AMC, который и посадил исполнительного продюсера «Ходячих мертвецов» и легендарного маэстро эффектов Грега Никотеро в кресло режиссера и исполнительного продюсера нового сериала. Сериал будет представлять собой антологию не связанных между собой жутких рассказов и черных комедий, объединенных в один сериал.

Качество: WEB-DL 1080p
Формат: MKV

Видео: MPEG-4 AVC, ~ 8450 Кбит/с, 1920x1080, 24.000 fps
Аудио#1 RUS: AC3, 48 kHz, 2 ch, 192 kbps - ПД (Кубик в Кубе)
Аудио#2 RUS: AC3, 48 kHz, 2 ch, 192 kbps - ПД (Кубик в Кубе 18+)
Аудио#3 ENG: E-AC-3, 48 kHz, 2 ch, 224 kbps
скриншот  скриншот  скриншот  скриншот  

Общее
Уникальный идентификатор : 189496811187613105214803419001380448448 (0x8E8FC22028C73C6F92183A72314CA8C0)
Полное имя : D:\Creepshow.S03.2021.WEB-DL.1080p.ExKinoRay\Creepshow.S03.E01.2021.WEB-DL.1080p.ExKinoRay.mkv
Формат : Matroska
Версия формата : Version 2
Размер файла : 2,97 Гбайт
Продолжительность : 46 м. 51 с.
Общий поток : 9 063 Кбит/сек
Дата кодирования : UTC 2021-10-14 16:07:32
Программа кодирования : mkvmerge v5.8.0 ('No Sleep / Pillow') built on Sep 2 2012 15:37:04
Библиотека кодирования : libebml v1.2.3 + libmatroska v1.3.0

Видео
Идентификатор : 1
Формат : AVC
Формат/Информация : Advanced Video Codec
Профиль формата : High@L4
Настройки формата : CABAC / 4 Ref Frames
Параметр CABAC формата : Да
Параметр RefFrames формата : 4 кадра
Идентификатор кодека : V_MPEG4/ISO/AVC
Продолжительность : 46 м. 51 с.
Вид битрейта : Постоянный
Битрейт : 8 474 Кбит/сек
Номинальный битрейт : 10 000 Кбит/сек
Ширина : 1 920 пикселей
Высота : 1 080 пикселей
Соотношение сторон : 16:9
Режим частоты кадров : Постоянный
Частота кадров : 24,000 кадра/сек
Цветовое пространство : YUV
Субдискретизация насыщенности : 4:2:0
Битовая глубина : 8 бит
Тип развёртки : Прогрессивная
Бит/(Пиксели*Кадры) : 0.166
Размер потока : 2,71 Гбайт (91%)
Язык : English
Default : Да
Forced : Нет
Цветовой диапазон : Limited
Основные цвета : BT.709
Характеристики трансфера : BT.709
Коэффициенты матрицы : BT.709

Аудио #1
Идентификатор : 2
Формат : AC-3
Формат/Информация : Audio Coding 3
Коммерческое название : Dolby Digital
Идентификатор кодека : A_AC3
Продолжительность : 46 м. 51 с.
Вид битрейта : Постоянный
Битрейт : 192 Кбит/сек
Каналы : 2 канала
Channel layout : L R
Частота : 48,0 КГц
Частота кадров : 31,250 кадров/сек (1536 SPF)
Метод сжатия : С потерями
Размер потока : 64,3 Мбайт (2%)
Заголовок : Kubik v kube
Язык : Russian
Service kind : Complete Main
Default : Да
Forced : Нет

Аудио #2
Идентификатор : 3
Формат : AC-3
Формат/Информация : Audio Coding 3
Коммерческое название : Dolby Digital
Идентификатор кодека : A_AC3
Продолжительность : 46 м. 51 с.
Вид битрейта : Постоянный
Битрейт : 192 Кбит/сек
Каналы : 2 канала
Channel layout : L R
Частота : 48,0 КГц
Частота кадров : 31,250 кадров/сек (1536 SPF)
Метод сжатия : С потерями
Размер потока : 64,3 Мбайт (2%)
Заголовок : Kubik v kube 18+
Язык : Russian
Service kind : Complete Main
Default : Нет
Forced : Нет

Аудио #3
Идентификатор : 4
Формат : E-AC-3
Формат/Информация : Enhanced AC-3
Коммерческое название : Dolby Digital Plus
Идентификатор кодека : A_EAC3
Продолжительность : 46 м. 51 с.
Вид битрейта : Постоянный
Битрейт : 224 Кбит/сек
Каналы : 2 канала
Channel layout : L R
Частота : 48,0 КГц
Частота кадров : 31,250 кадров/сек (1536 SPF)
Метод сжатия : С потерями
Размер потока : 75,1 Мбайт (2%)
Язык : English
Service kind : Complete Main
Default : Нет
Forced : Нет

Текст #1
Идентификатор : 5
Формат : UTF-8
Идентификатор кодека : S_TEXT/UTF8
Идентификатор кодека/Информация : UTF-8 Plain Text
Язык : Russian
Default : Нет
Forced : Нет

Текст #2
Идентификатор : 6
Формат : UTF-8
Идентификатор кодека : S_TEXT/UTF8
Идентификатор кодека/Информация : UTF-8 Plain Text
Язык : English
Default : Нет
Forced : Нет

Когда раздача ведётся путём добавления новых серий, при каждом добавлении создётся новый торрент. Чтобы начать докачку новой серии, пользователям необходимо сделать следующее:
(1) остановить скачивание,
(2) удалить старый торрент у себя из клиента (старые серии удалять не надо),
(3) скачать новый торрент и запустить его у себя в клиенте вместо старого, при этом указать клиенту путь в старую папку, куда и должно происходить скачивание новых серий.
Ваш клиент при этом должен произвести хеширование (проверку) старой папки (если не производит сам - помогите ему сделать это), и будет докачивать только те серии, которых у вас ещё нет. Старые серии при этом не удаляются, а продолжают раздаваться!
Eсли вы уже удалили старые серии, то предотвратить повторную закачку старых серий можно, отжав галочку в соответсвующих местах при запуске нового торрента. По возможности, желательно не удалять старые серии как можно дольше, чтобы релизёр не столько продолжал раздавать старые серии, а смог сконцентрироваться на новых.

pb.wtf



Скачать Калейдоскоп ужасов через торрент https://c.radikal.ru/c37/2110/91/d7d47628843a.jpg Скачать, смотреть онлайн Калейдоскоп ужасов бесплантно в хорошем качестве Описание: «Калейдоскоп ужасов» возвращается с размахом, на этот раз не на большом экране, а на Shudder, молодом потоковом сервисе, ... 9.8 10 5
Торрент: Зарегистрирован [2021-11-02 14:31] · скачан: 34 раз
Статус: √ проверено
Размер: 17.25 GB
Как cкачать? Как скачать Калейдоскоп ужасов через торрент | UTorrent

% Раздел Тема Автор DL S | L
Зарубежные сериалы [ 14.47 GB ] Калейдоскоп ужасов / Creepshow / Сезон: 3 / Серии: 1-5 из 6 [2021 WEB-DL 1080p] 2xMVO [LostFilm TVShows] bober100 Скачать
1 | 0


Последний раз редактировалось: bober100 (2021-11-02 14:31), всего редактировалось 5 раз(а)

28-11-2019 20:33  

Отключить всю рекламу на сайте

14-10-2021 19:51 Калейдоскоп ужасов Скачать торрент  

Прикольный сериал , даже местами смешной . Ужасы тут смешно сделаны , что ставит бод сомнения если они тут (pb.wtf



    Дорогой пользователь! Огромная просьба, поблагодарите релизера, оцените раздачу и оставьте свои комментарий, если Вы скачали Калейдоскоп ужасов через торрент бесплатно!
    Комментировать посты могут только пользователи прошедшие не сложную регистрацию
    Показать сообщения:    

    Калейдоскоп ужасов через торрент
    Скачать бесплатно Калейдоскоп ужасов
    Калейдоскоп ужасов скачать торрент
    Калейдоскоп ужасов смотреть онлайн
    Cкачать фильм Калейдоскоп ужасов бесплатно
    Калейдоскоп ужасов скачать торрент в хорошем качестве
    Калейдоскоп ужасов смотреть онлайн бесплатно в хорошем качестве


    Вы не можете начинать темы
    Вы не можете отвечать на сообщения
    Вы не можете редактировать свои сообщения
    Вы не можете удалять свои сообщения
    Вы не можете голосовать в опросах
    Вы не можете прикреплять файлы к сообщениям
    Вы можете скачивать файлы