Всегда рабочее зеркало без VPN и Proxy просто перед .vidak.icu напиши любое слово или цифру, Пример http://orer.vidak.icu

iTunes

2 сезон

1 сезон

1

1 сезон

iTunes

2 сезон

13

1 сезон

Deluxe

pack

Рекомендуем

Пиратка

30

ВАЖНО

RePack

MK11

RePack

jed

RePack

fifa19

RePack

RDR2

RePack

NEED FOR SPEED™ PAYBACK

Кинопоиск HD

6 сезон

 Острые козырьки 6 сезон

Все сериалы

все сериалы на PB.wtf

RePack

FAR CRY 5

Anonymous, нам критически не хватает 5601 руб. на оплату серверов и переферии за Апрель, помоги нам пожалуйста, вся надежда только на тебя. В благодарность мы отключим тебе всю рекламу на сайте!

×
  
Magnet ссылка

Парни из Трейлерпарка: Обратный отсчет до запоя / Trailer Park Boys: Countdown to Liquor Day (Майк Клаттенбёрг) [2009, Комедия, Криминал, HDRip-AVC] MVO, AVO [Jaskier, Яроцкий] от ExKinoRay pb.wtf

Парни из Трейлерпарка: Обратный отсчет до запоя через торрент pb.wtf

Размер: 2.85 GB | Добавлен: 7 мес. назад | Торрент скачан:13 раз
Смотреть онлайн Парни из Трейлерпарка: Обратный отсчет до запоя | Скачать    Ребята, помогите собрать деньги на оплату серверов!!!

15-10-2021 20:23 Парни из Трейлерпарка: Обратный отсчет до запоя Скачать торрент  


Парни из Трейлерпарка: Обратный отсчет до запоя / Trailer Park Boys: Countdown to Liquor Day
Информация о фильме:
Название: Парни из Трейлерпарка: Обратный отсчет до запоя
Оригинальное название: Trailer Park Boys: Countdown to Liquor Day
Год выхода: 2009
Жанр: Комедия, Криминал
Режиссер: Майк Клаттенбёрг

В ролях: Робб Уэллс, Джон Пол Тремблэ, Майк Смит, Джон Дансуорт, Джонатан Торренс, Патрик Роач, Люси Декутер, Сара Дансуорт, Бэрри Данн, Тайрон Парсонс

Описание: Рикки, Джулиан и Бабблс возвращаются из тюрьмы и обнаруживают, что их любимый парк совсем запущен, а под боком появился какой-то совершенно новый Трейлер-Парк. С помощью быстрых схем и ограблений они пытаются разбогатеть, в то время как вновь ушедший в запой участковый Лейхи угрожает сорвать все их планы.



Страна: Канада
Студия: Eggplant Pictures, Topsail Entertainment, Trailer Park Productions
Продолжительность: 01:42:16
Перевод: Профессиональный (многоголосый, закадровый) - Jaskier , Aвторский - Яроцкий/kyberpunk



Информация о файле:
Кодек: AVC
Формат: MKV
Качество: HDRip-AVC
Видео: MPEG-4 AVC, 1024x576, 23.976 fps, 2650 kbps
Аудио RU: AC3, 6 ch, 48 kHz, 448 kbps | Jaskier | Tnx.KinoPub
Аудио RU: AC3, 6 ch, 48 kHz, 448 kbps | Яроцкий | Tnx.Переулок переводмана
Аудио EN: AC3, 6 ch, 48 kHz, 448 kbps
Субтитры: Английские



x264 info: frame I:853 Avg QP:16.51 size: 84849
x264 info: frame P:34214 Avg QP:19.89 size: 29299
x264 info: frame B:112044 Avg QP:22.34 size: 8348
x264 info: consecutive B-frames: 2.4% 3.7% 9.7% 27.2% 16.0% 29.3% 4.5% 6.2% 0.8% 0.2% 0.1%
General
Unique ID : 260047789659630666861270168927024383842 (0xC3A361EC06A230F11E8957D502370762)
Complete name : D:uTorrentРипы wolf1245Trailer Park Boys..Countdown to Liquor Day.2009.MVO.HDRip-AVC.[wolf1245.ExKinoRay].mkv
Format : Matroska
Format version : Version 4
File size : 2.85 GiB
Duration : 1 h 42 min
Overall bit rate : 3 994 kb/s
Movie name : Trailer Park Boys..Countdown to Liquor Day.2009.MVO.HDRip-AVC.[wolf1245.ExKinoRay]
Encoded date : UTC 2021-10-15 20:04:59
Writing application : mkvmerge v62.0.0 ('Apollo') 64-bit
Writing library : libebml v1.4.2 + libmatroska v1.6.4
Video
ID : 1
Format : AVC
Format/Info : Advanced Video Codec
Format profile : High@L4.1
Format settings : CABAC / 14 Ref Frames
Format settings, CABAC : Yes
Format settings, Reference frames : 14 frames
Codec ID : V_MPEG4/ISO/AVC
Duration : 1 h 42 min
Bit rate : 2 650 kb/s
Width : 1 024 pixels
Height : 576 pixels
Display aspect ratio : 16:9
Frame rate mode : Constant
Frame rate : 23.976 (24000/1001) FPS
Color space : YUV
Chroma subsampling : 4:2:0
Bit depth : 8 bits
Scan type : Progressive
Bits/(Pixel*Frame) : 0.187
Stream size : 1.89 GiB (66%)
Title : -=[wolf1245.ExKinoRay]=-
Writing library : x264 core 161 r3020 d198931
Encoding settings : cabac=1 / ref=14 / deblock=1:-3:-3 / analyse=0x3:0x133 / me=umh / subme=11 / psy=1 / psy_rd=1.00:0.05 / mixed_ref=1 / me_range=48 / chroma_me=1 / trellis=2 / 8x8dct=1 / cqm=0 / deadzone=21,11 / fast_pskip=1 / chroma_qp_offset=-3 / threads=10 / lookahead_threads=2 / sliced_threads=0 / nr=0 / decimate=1 / interlaced=0 / bluray_compat=0 / constrained_intra=0 / bframes=10 / b_pyramid=2 / b_adapt=2 / b_bias=0 / direct=3 / weightb=1 / open_gop=0 / weightp=2 / keyint=240 / keyint_min=24 / scenecut=40 / intra_refresh=0 / rc_lookahead=60 / rc=2pass / mbtree=1 / bitrate=2650 / ratetol=1.0 / qcomp=0.60 / qpmin=0 / qpmax=69 / qpstep=4 / cplxblur=20.0 / qblur=0.5 / vbv_maxrate=50000 / vbv_bufsize=62500 / nal_hrd=none / filler=0 / ip_ratio=1.40 / aq=3:0.80
Language : English
Default : Yes
Forced : No
Audio #1
ID : 2
Format : AC-3
Format/Info : Audio Coding 3
Commercial name : Dolby Digital
Codec ID : A_AC3
Duration : 1 h 42 min
Bit rate mode : Constant
Bit rate : 448 kb/s
Channel(s) : 6 channels
Channel layout : L R C LFE Ls Rs
Sampling rate : 48.0 kHz
Frame rate : 31.250 FPS (1536 SPF)
Compression mode : Lossy
Stream size : 328 MiB (11%)
Title : [MVO] Jaskier
Language : Russian
Service kind : Complete Main
Default : Yes
Forced : No
Audio #2
ID : 3
Format : AC-3
Format/Info : Audio Coding 3
Commercial name : Dolby Digital
Codec ID : A_AC3
Duration : 1 h 42 min
Bit rate mode : Constant
Bit rate : 448 kb/s
Channel(s) : 6 channels
Channel layout : L R C LFE Ls Rs
Sampling rate : 48.0 kHz
Frame rate : 31.250 FPS (1536 SPF)
Compression mode : Lossy
Stream size : 328 MiB (11%)
Title : [AVO] Яроцкий/kyberpunk
Language : Russian
Service kind : Complete Main
Default : No
Forced : No
Audio #3
ID : 4
Format : AC-3
Format/Info : Audio Coding 3
Commercial name : Dolby Digital
Codec ID : A_AC3
Duration : 1 h 42 min
Bit rate mode : Constant
Bit rate : 448 kb/s
Channel(s) : 6 channels
Channel layout : L R C LFE Ls Rs
Sampling rate : 48.0 kHz
Frame rate : 31.250 FPS (1536 SPF)
Compression mode : Lossy
Stream size : 328 MiB (11%)
Title : Original
Language : English
Service kind : Complete Main
Default : No
Forced : No
Text
ID : 5
Format : UTF-8
Codec ID : S_TEXT/UTF8
Codec ID/Info : UTF-8 Plain Text
Duration : 1 h 41 min
Bit rate : 99 b/s
Count of elements : 1894
Stream size : 74.5 KiB (0%)
Language : English
Default : No
Forced : No
Релиз от:
Автор релиза:
pb.wtf



Скачать Парни из Трейлерпарка: Обратный отсчет до запоя через торрент https://i115.fastpic.org/big/2021/1015/a3/e506159537f5175e56b068bce3403da3.jpg Скачать, смотреть онлайн Парни из Трейлерпарка: Обратный отсчет до запоя бесплантно в хорошем качестве Описание: Рикки, Джулиан и Бабблс возвращаются из тюрьмы и обнаруживают, что их любимый парк совсем запущен, а под боком появился ... 10 10 2
Торрент: Зарегистрирован [2021-10-15 20:23] · скачан: 13 раз
Статус: √ проверено
Размер: 2.85 GB
Как cкачать? Как скачать Парни из Трейлерпарка: Обратный отсчет до запоя через торрент | UTorrent

28-11-2019 20:33  

Отключить всю рекламу на сайте

    Дорогой пользователь! Огромная просьба, поблагодарите релизера, оцените раздачу и оставьте свои комментарий, если Вы скачали Парни из Трейлерпарка: Обратный отсчет до запоя через торрент бесплатно!
    Комментировать посты могут только пользователи прошедшие не сложную регистрацию
    Показать сообщения:    

    Парни из Трейлерпарка: Обратный отсчет до запоя через торрент
    Скачать бесплатно Парни из Трейлерпарка: Обратный отсчет до запоя
    Парни из Трейлерпарка: Обратный отсчет до запоя скачать торрент
    Парни из Трейлерпарка: Обратный отсчет до запоя смотреть онлайн
    Cкачать фильм Парни из Трейлерпарка: Обратный отсчет до запоя бесплатно
    Парни из Трейлерпарка: Обратный отсчет до запоя скачать торрент в хорошем качестве
    Парни из Трейлерпарка: Обратный отсчет до запоя смотреть онлайн бесплатно в хорошем качестве


    Вы не можете начинать темы
    Вы не можете отвечать на сообщения
    Вы не можете редактировать свои сообщения
    Вы не можете удалять свои сообщения
    Вы не можете голосовать в опросах
    Вы не можете прикреплять файлы к сообщениям
    Вы можете скачивать файлы