Присоединяйтесь к нам в Telegram!, здесь всегда актуальный адрес сайта, оперативная поддержка и многое другое!!

>

5.9

iTunes

7.4

iTunes

9.4

1 сезон

1

7.4

2 сезон

7.2

iTunes

7.3

1 сезон

13

6.1

iTunes

8.3

GOG

30

ULTIMATE

pack

9.9

Лицензия

ВАЖНО

ИГРА 18+

pack

7.3

RePack

MK11

7.7

RePack

jed

7.8

RePack

fifa19

8.5

RePack

RDR2

RePack

NEED FOR SPEED™ PAYBACK

5 сезон

9 сезон

Бесстыжие 9 сезон

Все сериалы

все сериалы на PB.wtf

RePack

FAR CRY 5

Anonymous, доброй ночи, мы катастрофически не успеваем собрать деньги на оплату серверов, помогите нам пожалуйста 5,10,15р., для нас важна любая помощь . В качестве благодарности мы отключим Вам всю рекламу на сайте (укажите свой ник в строку Ваше имя)!

×
  
Magnet ссылка

Хороший, плохой, коп / Copshop (Джо Карнахан) [2021, Боевик, триллер, криминал, WEB-DLRip-AVC] DUB [iTunes] +MVO (rus, ukr) [HDRezka Studio] pb.wtf

Хороший, плохой, коп через торрент pb.wtf

Раздают: 13 [ 0 KB/s ]
Размер: 2.36 GB | Добавлен: 7 д. назад | Торрент скачан:184 раза
Смотреть онлайн Хороший, плохой, коп | Скачать    Ребята, помогите собрать деньги на оплату серверов!!!

16-10-2021 03:42 Хороший, плохой, коп Скачать торрент  

Хороший, плохой, коп
Copshop

Год выпуска: 2021
Страна: США
Выпущено: G-BASE, Raven Capital Management, Sculptor Media, WarParty Films, Zero Gravity Management
Жанр: Боевик, триллер, криминал
Продолжительность: 01:47:40
Перевод(ы):
#1: Дублированный | iTunes
#2: Профессиональный многоголосый | HDRezka Studio
Субтитры: Русские (Forced, full), английские

Режиссер: Джо Карнахан

rating

В ролях: Джерард Батлер, Фрэнк Грилло, Алексис Лодер, Тоби Хасс, Чад Л. Коулмэн, Райан О’Нан, Хосе Пабло Кантильо, Каиви Лайман, Роберт Уокер Браншод, Трэйси Боннер

Описание: Небольшой городок в Неваде. Во время разгона свадебной драки молодая полицейская Валери Янг получает по лицу от заезжего хлыща. Только его определяют за решётку в местный полицейский участок, как в дежурных копов на пустынной дороге чуть не врезается на машине какой-то пьянчуга. Его сажают в другую камеру, и он оказался тут неспроста. Скоро прежде тихий полицейский участок станет местом жестокого противостояния, а Валери придётся принимать непростые решения.

Качество: WEB-DLRip-AVC
Формат: MKV

Видео: 1024x426 at 23.976 fps, x264@L4.1, ~2300 kbps
Аудио #01: 48 kHz, AC3, 5.1, 384 Kbps | Дублированный | iTunes | RUS |
Аудио #02: 48 kHz, AC3, 5.1, 448 Kbps | Профессиональный многоголосый | HDRezka Studio | RUS |
скриншот  скриншот  скриншот  скриншот  скриншот  

x264 [info]: frame I:1217 Avg QP:14.18 size: 76693
x264 [info]: frame P:33993 Avg QP:17.17 size: 25186
x264 [info]: frame B:119682 Avg QP:18.56 size: 7569

General
Unique ID : 144500163133344617999385078691403529868 (0x6CB5B817E73C6D8EC62D9FA2FA89FE8C)
Complete name : K:Copshop.2021.WEB-DLRip-AVC.mkv
Format : Matroska
Format version : Version 4
File size : 2.36 GiB
Duration : 1 h 47 min
Overall bit rate : 3 132 kb/s
Encoded date : UTC 2021-11-19 08:01:05
Writing application : mkvmerge v63.0.0 ('Everything') 64-bit
Writing library : libebml v1.4.2 + libmatroska v1.6.4
Cover : Yes
Attachments : cover.jpg / cover 2.jpg

Video
ID : 1
Format : AVC
Format/Info : Advanced Video Codec
Format profile : High@L4.1
Format settings : CABAC / 12 Ref Frames
Format settings, CABAC : Yes
Format settings, Reference : 12 frames
Codec ID : V_MPEG4/ISO/AVC
Duration : 1 h 47 min
Bit rate : 2 300 kb/s
Width : 1 024 pixels
Height : 426 pixels
Display aspect ratio : 2.40:1
Frame rate mode : Constant
Frame rate : 23.976 (24000/1001) FPS
Color space : YUV
Chroma subsampling : 4:2:0
Bit depth : 8 bits
Scan type : Progressive
Bits/(Pixel*Frame) : 0.220
Stream size : 1.73 GiB (73%)
Title : -=DoMiNo=-
Writing library : x264 core 164 r3075+55M 97d28bb t_mod_New [(8 & 10)-bit@all X86_64]
Encoding settings : cabac=1 / ref=12 / deblock=1:-3:-3 / analyse=0x3:0x133 / me=umh / subme=10 / psy=1 / fade_compensate=0.00 / psy_rd=1.00:0.20 / mixed_ref=1 / me_range=32 / chroma_me=1 / trellis=2 / 8x8dct=1 / cqm=0 / deadzone=21,11 / fast_pskip=0 / chroma_qp_offset=-3 / threads=24 / lookahead_threads=3 / sliced_threads=0 / nr=0 / decimate=0 / interlaced=0 / bluray_compat=0 / constrained_intra=0 / fgo=0 / bframes=10 / b_pyramid=2 / b_adapt=2 / b_bias=0 / direct=3 / weightb=1 / open_gop=0 / weightp=2 / keyint=240 / keyint_min=23 / scenecut=40 / intra_refresh=0 / rc=2pass / mbtree=0 / bitrate=2300 / ratetol=1.0 / qcomp=0.60 / qpmin=0:0:0 / qpmax=69:69:69 / qpstep=4 / cplxblur=20.0 / qblur=0.5 / ip_ratio=1.40 / pb_ratio=1.30 / aq=3:0.80 / aq-sensitivity=10.00 / aq-factor=1.00:1.00:1.00 / aq2=0 / aq3=0
Language : English
Default : Yes
Forced : No
Color range : Limited
Color primaries : BT.709
Transfer characteristics : BT.709
Matrix coefficients : BT.709

Audio #1
ID : 2
Format : AC-3
Format/Info : Audio Coding 3
Commercial name : Dolby Digital
Codec ID : A_AC3
Duration : 1 h 47 min
Bit rate mode : Constant
Bit rate : 384 kb/s
Channel(s) : 6 channels
Channel layout : L R C LFE Ls Rs
Sampling rate : 48.0 kHz
Frame rate : 31.250 FPS (1536 SPF)
Compression mode : Lossy
Stream size : 296 MiB (12%)
Title : DUB_[iTunes]
Language : Italian
Service kind : Complete Main
Default : Yes
Forced : Yes

Audio #2
ID : 3
Format : AC-3
Format/Info : Audio Coding 3
Commercial name : Dolby Digital
Codec ID : A_AC3
Duration : 1 h 47 min
Bit rate mode : Constant
Bit rate : 448 kb/s
Channel(s) : 6 channels
Channel layout : L R C LFE Ls Rs
Sampling rate : 48.0 kHz
Frame rate : 31.250 FPS (1536 SPF)
Compression mode : Lossy
Stream size : 345 MiB (14%)
Title : MVO_[HDRezka Studio (Censored)]
Language : Russian
Service kind : Complete Main
Default : No
Forced : No

Text #1
ID : 4
Format : UTF-8
Codec ID : S_TEXT/UTF8
Codec ID/Info : UTF-8 Plain Text
Duration : 1 h 40 min
Bit rate : 3 b/s
Count of elements : 57
Stream size : 2.71 KiB (0%)
Title : Forced
Language : Russian
Default : Yes
Forced : No

Text #2
ID : 5
Format : UTF-8
Codec ID : S_TEXT/UTF8
Codec ID/Info : UTF-8 Plain Text
Duration : 1 h 40 min
Bit rate : 90 b/s
Count of elements : 1656
Stream size : 66.9 KiB (0%)
Title : Full [MENINSUB]
Language : Russian
Default : No
Forced : No

Text #3
ID : 6
Format : UTF-8
Codec ID : S_TEXT/UTF8
Codec ID/Info : UTF-8 Plain Text
Duration : 1 h 41 min
Bit rate : 58 b/s
Count of elements : 1651
Stream size : 43.4 KiB (0%)
Title : Full
Language : English
Default : No
Forced : No

Text #4
ID : 7
Format : UTF-8
Codec ID : S_TEXT/UTF8
Codec ID/Info : UTF-8 Plain Text
Duration : 1 h 46 min
Bit rate : 71 b/s
Count of elements : 2178
Stream size : 55.5 KiB (0%)
Title : SDH
Language : English
Default : No
Forced : No

pb.wtf



Скачать Хороший, плохой, коп через торрент https://a.radikal.ru/a17/2111/e8/d834e7c42662.jpg Скачать, смотреть онлайн Хороший, плохой, коп бесплантно в хорошем качестве Описание: Небольшой городок в Неваде. Во время разгона свадебной драки молодая полицейская Валери Янг получает по лицу от заезжего хлыща. ... 10 10 20
Info! Золотая раздача, скачанное не засчитывается.
Торрент: Зарегистрирован [2021-11-19 08:09] · скачан: 184 раз
Статус: √ проверено
Размер: 2.36 GB
Как cкачать? Как скачать Хороший, плохой, коп через торрент | UTorrent

% Раздел Тема Автор DL S | L
Фильмы (WEB-DL 720p, 1080p) [ 8.02 GB ] Хороший плохой коп / Copshop [2021 WEB-DL 1080p] +MVO [HDRezka Studio] bober100 Скачать
12 | 0
Фильмы [HD 720p, 1080p] (Хороший звук DUB, MVO) [ 5.03 GB ] Хороший плохой коп / Copshop [2021 BDRip 720p] +MVO [HDRezka Studio] bober100 Скачать
11 | 1
Фильмы [HD 720p, 1080p] (Хороший звук DUB, MVO) [ 13.2 GB ] Хороший плохой коп / Copshop [2021 BDRip 1080p] +MVO [HDRezka Studio] bober100 Скачать
10 | 0
Фильмы 2021 [DVDrip, WEB-DLRip, HDrip] (DUB, MVO) [ 1.46 GB ] Хороший плохой коп / Copshop [2021 WEB-DLRip] bober100 Скачать
19 | 0
Ultra HD (UHD: 2K, 4K, 8K) — видео сверхвысокой чёткости [ 12.63 GB ] Хороший плохой коп / Copshop [2021 UHD WEB-DL-HEVC 2160p] +MVO [HDRezka Studio] bober100 Скачать
7 | 0
Фильмы 2021 [DVDrip, WEB-DLRip, HDrip] (DUB, MVO) [ 1.46 GB ] Хороший плохой коп / Copshop [2021 WEB-DLRip] MVO [HDRezka Studio] bober100 Скачать
9 | 0
Фильмы с украинским озвучиванием [ 1.84 GB ] Хороший плохой коп / Хороший поганий коп / Copshop [2021 WEBRip 1080p] [Ukr MVO] killermax2013 Скачать
1 | 0

28-11-2019 20:33  

Отключить всю рекламу на сайте

19-11-2021 08:14 Хороший, плохой, коп Скачать торрент  

нормальный фильм, даже хороший.pb.wtf



19-11-2021 08:56 Хороший, плохой, коп Скачать торрент  

Слабое кино!
Никому из знакомых не понравилось.
От нечего делать, конечно можно посмотреть, но многого не ждите.pb.wtf



19-11-2021 20:50 Хороший, плохой, коп Скачать торрент  

mrAmerica писал(а):

Слабое кино!
Никому из знакомых не понравилось.
От нечего делать, конечно можно посмотреть, но многого не ждите.

+pb.wtf



    Дорогой пользователь! Огромная просьба, поблагодарите релизера, оцените раздачу и оставьте свои комментарий, если Вы скачали Хороший, плохой, коп через торрент бесплатно!
    Комментировать посты могут только пользователи прошедшие не сложную регистрацию
    Показать сообщения:    

    Хороший, плохой, коп через торрент
    Скачать бесплатно Хороший, плохой, коп
    Хороший, плохой, коп скачать торрент
    Хороший, плохой, коп смотреть онлайн
    Cкачать фильм Хороший, плохой, коп бесплатно
    Хороший, плохой, коп скачать торрент в хорошем качестве
    Хороший, плохой, коп смотреть онлайн бесплатно в хорошем качестве


    Вы не можете начинать темы
    Вы не можете отвечать на сообщения
    Вы не можете редактировать свои сообщения
    Вы не можете удалять свои сообщения
    Вы не можете голосовать в опросах
    Вы не можете прикреплять файлы к сообщениям
    Вы можете скачивать файлы