Присоединяйтесь к нам в Telegram!, здесь всегда актуальный адрес сайта, оперативная поддержка и многое другое!!

>

5.9

iTunes

7.4

iTunes

9.4

1 сезон

1

7.4

2 сезон

7.2

iTunes

7.3

1 сезон

13

6.1

iTunes

8.3

GOG

30

ULTIMATE

pack

9.9

Лицензия

ВАЖНО

ИГРА 18+

pack

7.3

RePack

MK11

7.7

RePack

jed

7.8

RePack

fifa19

8.5

RePack

RDR2

RePack

NEED FOR SPEED™ PAYBACK

5 сезон

9 сезон

Бесстыжие 9 сезон

Все сериалы

все сериалы на PB.wtf

RePack

FAR CRY 5

Anonymous, доброе утро, мы катастрофически не успеваем собрать деньги на оплату серверов, помогите нам пожалуйста 5,10,15р., для нас важна любая помощь . В качестве благодарности мы отключим Вам всю рекламу на сайте (укажите свой ник в строку Ваше имя)!

×
  
Magnet ссылка

Паранормальная тюрьма / Paranormal Prison (Брайан Джаггер) [2021, ужасы, триллер, WEB-DLRip-AVC] MVO [iTunes] от ExKinoRay pb.wtf

Паранормальная тюрьма через торрент pb.wtf

Раздают: 2 [ 0 KB/s ]
Размер: 1.78 GB | Добавлен: 1 мес. 17 д. назад | Торрент скачан:56 раз
Смотреть онлайн Паранормальная тюрьма | Скачать    Ребята, помогите собрать деньги на оплату серверов!!!

16-10-2021 05:43 Паранормальная тюрьма Скачать торрент  


Паранормальная тюрьма / Paranormal Prison
Информация о фильме:
Название: Паранормальная тюрьма
Оригинальное название: Paranormal Prison
Год выхода: 2021
Жанр: Ужасы, триллер
Режиссер: Брайан Джаггер

В ролях: Тодд Хаберкорн, Пэрис Уорнер, Дон Шанкс, Corynn Treadwell, Nyk Fry, Brian Telestai, Сара С. Паттерсон, Скотт Билз, Истон Лэй
Описание: Группа YouTube-блогеров, ведущих малоизвестный канал с расследованиями паранормальных явлений, решает провести ночь в закрытой тюрьме для опасных преступников, которая подлежит сносу. Это их последней шанс создать успешное видео и раскрыть тайну, долгое время наводившую ужас на поклонников мистики.



Страна: США
Студия: Blue Banner Films, Gravitas Ventures, HJU Group
Продолжительность: 01:10:34
Перевод: Профессиональный (многоголосый, закадровый) - iTunes



Информация о файле:
Кодек: AVC
Формат: MKV
Качество: WEB-DLRip-AVC
Видео: MPEG-4 AVC, 1024x574, 23.976 fps, 2650 kbps
Аудио RU: AC3, 6 ch, 48 kHz, 384 kbps
Аудио EN: AC3, 6 ch, 48 kHz, 384 kbps
Аудио UKR: AC3, 2 ch, 48 kHz, 192 kbps

x264 info: frame I:555 Avg QP:15.85 size: 60886
x264 info: frame P:27422 Avg QP:19.45 size: 23943
x264 info: frame B:73531 Avg QP:21.40 size: 9096
x264 info: consecutive B-frames: 4.1% 5.9% 9.7% 46.3% 13.3% 12.3% 3.0% 2.4% 0.7% 1.2% 1.2%
General
Unique ID : 75337858794738977053924158416099810151 (0x38AD8B37C799B0B76B779F6D56251B67)
Complete name : D:uTorrentРипы wolf1245.Paranormal Prison.2021.MVO.iTunes.WEB-DLRip-AVC.[wolf1245.ExKinoRay].mkv
Format : Matroska
Format version : Version 4
File size : 1.78 GiB
Duration : 1 h 10 min
Overall bit rate : 3 611 kb/s
Movie name : .Paranormal Prison.2021.MVO.iTunes.WEB-DLRip-AVC.[wolf1245.ExKinoRay]
Encoded date : UTC 2021-10-16 05:30:03
Writing application : mkvmerge v62.0.0 ('Apollo') 64-bit
Writing library : libebml v1.4.2 + libmatroska v1.6.4
Video
ID : 1
Format : AVC
Format/Info : Advanced Video Codec
Format profile : High@L4.1
Format settings : CABAC / 14 Ref Frames
Format settings, CABAC : Yes
Format settings, Reference frames : 14 frames
Codec ID : V_MPEG4/ISO/AVC
Duration : 1 h 10 min
Bit rate : 2 650 kb/s
Width : 1 024 pixels
Height : 574 pixels
Display aspect ratio : 16:9
Frame rate mode : Constant
Frame rate : 23.976 (24000/1001) FPS
Color space : YUV
Chroma subsampling : 4:2:0
Bit depth : 8 bits
Scan type : Progressive
Bits/(Pixel*Frame) : 0.188
Stream size : 1.31 GiB (73%)
Title : -=[wolf1245.ExKinoRay]=-
Writing library : x264 core 161 r3020 d198931
Encoding settings : cabac=1 / ref=14 / deblock=1:-3:-3 / analyse=0x3:0x133 / me=umh / subme=11 / psy=1 / psy_rd=1.00:0.05 / mixed_ref=1 / me_range=48 / chroma_me=1 / trellis=2 / 8x8dct=1 / cqm=0 / deadzone=21,11 / fast_pskip=1 / chroma_qp_offset=-3 / threads=10 / lookahead_threads=2 / sliced_threads=0 / nr=0 / decimate=1 / interlaced=0 / bluray_compat=0 / constrained_intra=0 / bframes=10 / b_pyramid=2 / b_adapt=2 / b_bias=0 / direct=3 / weightb=1 / open_gop=0 / weightp=2 / keyint=240 / keyint_min=24 / scenecut=40 / intra_refresh=0 / rc_lookahead=60 / rc=2pass / mbtree=1 / bitrate=2650 / ratetol=1.0 / qcomp=0.60 / qpmin=0 / qpmax=69 / qpstep=4 / cplxblur=20.0 / qblur=0.5 / vbv_maxrate=50000 / vbv_bufsize=62500 / nal_hrd=none / filler=0 / ip_ratio=1.40 / aq=3:0.80
Language : English
Default : Yes
Forced : No
Color range : Limited
Color primaries : BT.709
Transfer characteristics : BT.709
Matrix coefficients : BT.709
Audio #1
ID : 2
Format : AC-3
Format/Info : Audio Coding 3
Commercial name : Dolby Digital
Codec ID : A_AC3
Duration : 1 h 10 min
Bit rate mode : Constant
Bit rate : 384 kb/s
Channel(s) : 6 channels
Channel layout : L R C LFE Ls Rs
Sampling rate : 48.0 kHz
Frame rate : 31.250 FPS (1536 SPF)
Compression mode : Lossy
Stream size : 194 MiB (11%)
Title : MVO (iTunes)
Language : Russian
Service kind : Complete Main
Default : Yes
Forced : No
Audio #2
ID : 3
Format : AC-3
Format/Info : Audio Coding 3
Commercial name : Dolby Digital
Codec ID : A_AC3
Duration : 1 h 10 min
Bit rate mode : Constant
Bit rate : 192 kb/s
Channel(s) : 2 channels
Channel layout : L R
Sampling rate : 48.0 kHz
Frame rate : 31.250 FPS (1536 SPF)
Compression mode : Lossy
Stream size : 96.9 MiB (5%)
Title : MVO (iTunes)
Language : Ukrainian
Service kind : Complete Main
Default : No
Forced : No
Audio #3
ID : 4
Format : AC-3
Format/Info : Audio Coding 3
Commercial name : Dolby Digital
Codec ID : A_AC3
Duration : 1 h 10 min
Bit rate mode : Constant
Bit rate : 384 kb/s
Channel(s) : 6 channels
Channel layout : L R C LFE Ls Rs
Sampling rate : 48.0 kHz
Frame rate : 31.250 FPS (1536 SPF)
Compression mode : Lossy
Stream size : 194 MiB (11%)
Title : Original
Language : English
Service kind : Complete Main
Default : No
Forced : No
Menu
00:00:00.000 : :1
00:08:22.000 : :2
00:19:39.000 : :3
00:30:20.000 : :4
00:40:10.000 : :5
00:50:11.000 : :6
01:01:19.000 : :7
01:07:47.000 : :8
Релиз от:
Автор релиза:
pb.wtf



Скачать Паранормальная тюрьма через торрент https://i115.fastpic.org/big/2021/1015/69/e57130546777bb992e6a56efea324f69.jpg Скачать, смотреть онлайн Паранормальная тюрьма бесплантно в хорошем качестве Описание: Группа YouTube-блогеров, ведущих малоизвестный канал с расследованиями паранормальных явлений, решает провести ночь в закрытой ... 8.2 10 5
Торрент: Зарегистрирован [2021-10-16 05:43] · скачан: 56 раз
Статус: √ проверено
Размер: 1.78 GB
Как cкачать? Как скачать Паранормальная тюрьма через торрент | UTorrent

28-11-2019 20:33  

Отключить всю рекламу на сайте

    Дорогой пользователь! Огромная просьба, поблагодарите релизера, оцените раздачу и оставьте свои комментарий, если Вы скачали Паранормальная тюрьма через торрент бесплатно!
    Комментировать посты могут только пользователи прошедшие не сложную регистрацию
    Показать сообщения:    

    Паранормальная тюрьма через торрент
    Скачать бесплатно Паранормальная тюрьма
    Паранормальная тюрьма скачать торрент
    Паранормальная тюрьма смотреть онлайн
    Cкачать фильм Паранормальная тюрьма бесплатно
    Паранормальная тюрьма скачать торрент в хорошем качестве
    Паранормальная тюрьма смотреть онлайн бесплатно в хорошем качестве


    Вы не можете начинать темы
    Вы не можете отвечать на сообщения
    Вы не можете редактировать свои сообщения
    Вы не можете удалять свои сообщения
    Вы не можете голосовать в опросах
    Вы не можете прикреплять файлы к сообщениям
    Вы можете скачивать файлы