Присоединяйтесь к нам в Telegram!, здесь всегда актуальный адрес сайта, оперативная поддержка и многое другое!!

>

5.9

iTunes

7.4

iTunes

9.4

1 сезон

1

7.4

2 сезон

7.2

iTunes

7.3

1 сезон

13

6.1

iTunes

8.3

GOG

30

ULTIMATE

pack

9.9

Лицензия

ВАЖНО

ИГРА 18+

pack

7.3

RePack

MK11

7.7

RePack

jed

7.8

RePack

fifa19

8.5

RePack

RDR2

RePack

NEED FOR SPEED™ PAYBACK

5 сезон

9 сезон

Бесстыжие 9 сезон

Все сериалы

все сериалы на PB.wtf

RePack

FAR CRY 5

Anonymous, добрый вечер, мы катастрофически не успеваем собрать деньги на оплату серверов, помогите нам пожалуйста 5,10,15р., для нас важна любая помощь . В качестве благодарности мы отключим Вам всю рекламу на сайте (укажите свой ник в строку Ваше имя)!

×
  
Magnet ссылка

Отряд самоубийц: Миссия навылет / The Suicide Squad (Джеймс Ганн) [2021, Боевик, фантастика, комедия, фэнтези, BDRip-AVC] DUB [Кинопоиск HD] от ExKinoRay pb.wtf

Отряд самоубийц: Миссия навылет через торрент pb.wtf

Раздают: 5 [ 34 KB/s ]
Размер: 3.14 GB | Добавлен: 1 мес. 14 д. назад | Торрент скачан:107 раз
Смотреть онлайн Отряд самоубийц: Миссия навылет | Скачать    Ребята, помогите собрать деньги на оплату серверов!!!

16-10-2021 19:26 Отряд самоубийц: Миссия навылет Скачать торрент  


Отряд самоубийц: Миссия навылет / The Suicide Squad
Информация о фильме:
Название: Отряд самоубийц: Миссия навылет
Оригинальное название: The Suicide Squad
Год выхода: 2021
Жанр: боевик, фантастика, комедия, фэнтези
Режиссер: Джеймс Ганн

В ролях: Идрис Эльба, Марго Робби, Джон Сина, Юэль Киннаман, Даниэла Мелшиор, Питер Капальди, Давид Дастмалчян, Сильвестр Сталлоне, Виола Дэвис, Алиси Брага

Описание: Отобрав наиболее перспективных заключенных из тюрьмы, в которой содержатся не только самые опасные преступники, но и люди со свехрспособностями, и даже не люди, правительственный агент отправляет их на самоубийственное задание в одну латиноамериканскую страну, где недавно произошел военный переворот. А чтобы те наверняка не сбежали, каждому в голову вживляется взрывное устройство.



Страна: США, Канада, Великобритания
Студия: Atlas Entertainment, DC Entertainment, Safran Company, The, Warner Bros.
Продолжительность: 02:12:02
Перевод: Дублированный - Кинопоиск HD



Информация о файле:
Кодек: AVC
Формат: MKV
Качество: BDRip-AVC | [The.Suicide.Squad.2021.BDREMUX.1080p.seleZen]
Видео: MPEG-4 AVC, 1024x540, 23.976 fps, 2500 kb/s
Аудио RU: AC3, 6 ch, 48 kHz, 448 kbps
Аудио EN: AC3, 6 ch, 48 kHz, 448 kbps
Субтитры: Русские (Forced, 2 x full), английские

x264 info: frame I:1721 Avg QP:15.70 size: 99018
x264 info: frame P:47788 Avg QP:19.86 size: 26870
x264 info: frame B:140546 Avg QP:22.87 size: 7275
x264 info: consecutive B-frames: 4.0% 5.3% 9.6% 30.6% 17.2% 22.1% 4.6% 4.9% 0.9% 0.4% 0.4%
General
Unique ID : 200574894465110913384427833820713801967 (0x96E551CCFF69535448D0FE75FF2B58EF)
Complete name : D:uTorrentРипы wolf1245.The Suicide Squad.2021.DUB.BDRip-AVC.[wolf1245.ExKinoRay].mkv
Format : Matroska
Format version : Version 4
File size : 3.14 GiB
Duration : 2 h 12 min
Overall bit rate : 3 398 kb/s
Movie name : .The Suicide Squad.2021.DUB.BDRip-AVC.[wolf1245.ExKinoRay]
Encoded date : UTC 2021-10-16 19:12:21
Writing application : mkvmerge v62.0.0 ('Apollo') 64-bit
Writing library : libebml v1.4.2 + libmatroska v1.6.4
Video
ID : 1
Format : AVC
Format/Info : Advanced Video Codec
Format profile : High@L4.1
Format settings : CABAC / 14 Ref Frames
Format settings, CABAC : Yes
Format settings, Reference frames : 14 frames
Codec ID : V_MPEG4/ISO/AVC
Duration : 2 h 12 min
Bit rate : 2 500 kb/s
Width : 1 024 pixels
Height : 540 pixels
Display aspect ratio : 1.896
Frame rate mode : Constant
Frame rate : 23.976 (24000/1001) FPS
Color space : YUV
Chroma subsampling : 4:2:0
Bit depth : 8 bits
Scan type : Progressive
Bits/(Pixel*Frame) : 0.189
Stream size : 2.31 GiB (74%)
Title : -=[wolf1245.ExKinoRay]=-
Writing library : x264 core 161 r3020 d198931
Encoding settings : cabac=1 / ref=14 / deblock=1:-3:-3 / analyse=0x3:0x133 / me=umh / subme=11 / psy=1 / psy_rd=1.00:0.07 / mixed_ref=1 / me_range=48 / chroma_me=1 / trellis=2 / 8x8dct=1 / cqm=0 / deadzone=21,11 / fast_pskip=1 / chroma_qp_offset=-3 / threads=10 / lookahead_threads=2 / sliced_threads=0 / nr=0 / decimate=1 / interlaced=0 / bluray_compat=0 / constrained_intra=0 / bframes=10 / b_pyramid=2 / b_adapt=2 / b_bias=0 / direct=3 / weightb=1 / open_gop=0 / weightp=2 / keyint=240 / keyint_min=24 / scenecut=40 / intra_refresh=0 / rc_lookahead=60 / rc=2pass / mbtree=1 / bitrate=2500 / ratetol=1.0 / qcomp=0.60 / qpmin=0 / qpmax=69 / qpstep=4 / cplxblur=20.0 / qblur=0.5 / vbv_maxrate=50000 / vbv_bufsize=62500 / nal_hrd=none / filler=0 / ip_ratio=1.40 / aq=1:0.80
Language : English
Default : Yes
Forced : No
Audio #1
ID : 2
Format : AC-3
Format/Info : Audio Coding 3
Commercial name : Dolby Digital
Codec ID : A_AC3
Duration : 2 h 12 min
Bit rate mode : Constant
Bit rate : 448 kb/s
Channel(s) : 6 channels
Channel layout : L R C LFE Ls Rs
Sampling rate : 48.0 kHz
Frame rate : 31.250 FPS (1536 SPF)
Compression mode : Lossy
Stream size : 423 MiB (13%)
Title : Dub | Кинопоиск HD
Language : Russian
Service kind : Complete Main
Default : Yes
Forced : No
Audio #2
ID : 3
Format : AC-3
Format/Info : Audio Coding 3
Commercial name : Dolby Digital
Codec ID : A_AC3
Duration : 2 h 12 min
Bit rate mode : Constant
Bit rate : 448 kb/s
Channel(s) : 6 channels
Channel layout : L R C LFE Ls Rs
Sampling rate : 48.0 kHz
Frame rate : 31.250 FPS (1536 SPF)
Compression mode : Lossy
Stream size : 423 MiB (13%)
Title : Original
Language : English
Service kind : Complete Main
Default : No
Forced : No
Text #1
ID : 4
Format : UTF-8
Codec ID : S_TEXT/UTF8
Codec ID/Info : UTF-8 Plain Text
Duration : 1 h 53 min
Bit rate : 5 b/s
Count of elements : 109
Stream size : 4.38 KiB (0%)
Title : Forced
Language : Russian
Default : Yes
Forced : Yes
Text #2
ID : 5
Format : UTF-8
Codec ID : S_TEXT/UTF8
Codec ID/Info : UTF-8 Plain Text
Duration : 2 h 9 min
Bit rate : 70 b/s
Count of elements : 1315
Stream size : 67.0 KiB (0%)
Title : Full
Language : Russian
Default : No
Forced : No
Text #3
ID : 6
Format : UTF-8
Codec ID : S_TEXT/UTF8
Codec ID/Info : UTF-8 Plain Text
Duration : 2 h 11 min
Bit rate : 68 b/s
Count of elements : 1415
Stream size : 66.2 KiB (0%)
Title : Full [FOCS]
Language : Russian
Default : No
Forced : No
Text #4
ID : 7
Format : UTF-8
Codec ID : S_TEXT/UTF8
Codec ID/Info : UTF-8 Plain Text
Duration : 2 h 11 min
Bit rate : 42 b/s
Count of elements : 1335
Stream size : 40.6 KiB (0%)
Title : Full
Language : English
Default : No
Forced : No
Text #5
ID : 8
Format : UTF-8
Codec ID : S_TEXT/UTF8
Codec ID/Info : UTF-8 Plain Text
Duration : 2 h 11 min
Bit rate : 61 b/s
Count of elements : 2051
Stream size : 59.5 KiB (0%)
Title : SDH
Language : English
Default : No
Forced : No
Menu
00:00:00.000 : :Chapter 01
00:14:25.615 : :Chapter 02
00:22:08.035 : :Chapter 03
00:31:31.973 : :Chapter 04
00:40:48.696 : :Chapter 05
00:50:20.017 : :Chapter 06
01:01:09.666 : :Chapter 07
01:10:05.868 : :Chapter 08
01:19:44.488 : :Chapter 09
01:29:00.669 : :Chapter 10
01:40:41.160 : :Chapter 11
01:50:37.130 : :Chapter 12
01:59:28.536 : :Chapter 13
02:12:06.669 : :Chapter 14
Релиз от:
Автор релиза:
pb.wtf



Скачать Отряд самоубийц: Миссия навылет через торрент https://i115.fastpic.org/big/2021/0811/b2/d6865cfda0c486f1d8c311a9f74ba6b2.jpg Скачать, смотреть онлайн Отряд самоубийц: Миссия навылет бесплантно в хорошем качестве Описание: Отобрав наиболее перспективных заключенных из тюрьмы, в которой содержатся не только самые опасные преступники, но и люди со ... 10 10 2
Торрент: Зарегистрирован [2021-10-16 19:26] · скачан: 107 раз
Статус: √ проверено
Размер: 3.14 GB
Как cкачать? Как скачать Отряд самоубийц: Миссия навылет через торрент | UTorrent

% Раздел Тема Автор DL S | L
T Фильмы (WEB-DL 720p, 1080p) [ 9.72 GB ] Отряд самоубийц: Миссия навылет / The Suicide Squad [2021 WEB-DL 1080p] DUB [Line] +MVO [HDRezka Studio] - ExKinoRay Enigma2010 Скачать
22 | 0

28-11-2019 20:33  

Отключить всю рекламу на сайте

    Дорогой пользователь! Огромная просьба, поблагодарите релизера, оцените раздачу и оставьте свои комментарий, если Вы скачали Отряд самоубийц: Миссия навылет через торрент бесплатно!
    Комментировать посты могут только пользователи прошедшие не сложную регистрацию
    Показать сообщения:    

    Отряд самоубийц: Миссия навылет через торрент
    Скачать бесплатно Отряд самоубийц: Миссия навылет
    Отряд самоубийц: Миссия навылет скачать торрент
    Отряд самоубийц: Миссия навылет смотреть онлайн
    Cкачать фильм Отряд самоубийц: Миссия навылет бесплатно
    Отряд самоубийц: Миссия навылет скачать торрент в хорошем качестве
    Отряд самоубийц: Миссия навылет смотреть онлайн бесплатно в хорошем качестве


    Вы не можете начинать темы
    Вы не можете отвечать на сообщения
    Вы не можете редактировать свои сообщения
    Вы не можете удалять свои сообщения
    Вы не можете голосовать в опросах
    Вы не можете прикреплять файлы к сообщениям
    Вы можете скачивать файлы