Присоединяйтесь к нам в Telegram!, здесь всегда актуальный адрес сайта, оперативная поддержка и многое другое!!

>

5.9

iTunes

7.4

iTunes

9.4

1 сезон

1

7.4

2 сезон

7.2

iTunes

7.3

1 сезон

13

6.1

iTunes

8.3

GOG

30

ULTIMATE

pack

9.9

Лицензия

ВАЖНО

ИГРА 18+

pack

7.3

RePack

MK11

7.7

RePack

jed

7.8

RePack

fifa19

8.5

RePack

RDR2

RePack

NEED FOR SPEED™ PAYBACK

5 сезон

9 сезон

Бесстыжие 9 сезон

Все сериалы

все сериалы на PB.wtf

RePack

FAR CRY 5

Anonymous, добрый вечер, мы катастрофически не успеваем собрать деньги на оплату серверов, помогите нам пожалуйста 5,10,15р., для нас важна любая помощь . В качестве благодарности мы отключим Вам всю рекламу на сайте (укажите свой ник в строку Ваше имя)!

×
  
Magnet ссылка

В западне / Till Death (С.К. Дэйл) [2021, Триллер, HDRip-AVC] DUB [iTunes] от ExKinoRay pb.wtf

В западне через торрент pb.wtf

Раздают: 6 [ 0.7 KB/s ]
Размер: 1.86 GB | Добавлен: 1 мес. 13 д. назад | Торрент скачан:160 раз
Смотреть онлайн В западне | Скачать    Ребята, помогите собрать деньги на оплату серверов!!!

17-10-2021 07:09 В западне Скачать торрент  


В западне / Till Death
Информация о фильме:
Название: В западне
Оригинальное название: Till Death
Год выхода: 2021
Жанр: Триллер
Режиссер: С.К. Дэйл

В ролях: Меган Фокс, Оуэн Мэкен, Каллэн Мулвей, Джек Рот, Амл Амин, Стефани Рожко, Юлиан Балагуров, Лили Рич, Теодора Джурич

Описание: Романтический вечер в честь годовщины свадьбы оборачивается настоящим кошмаром, когда наутро Эмма оказывается прикованной наручниками к трупу своего мужа. На девушку охотятся два киллера, которые хотят довести начатое до конца и убить ее. Героиня пытается сделать все, чтобы выжить и отомстить за смерть любимого человека.



Страна: США
Студия: Brave Carrot, Campbell Grobman Films, Millennium Media
Продолжительность: 01:28:51
Перевод: Дублированный - iTunes



Информация о файле:
Кодек: AVC
Формат: MKV
Качество: HDRip-AVC
Видео: MPEG-4 AVC, 1024x430, 23.976 fps, 2150 kb/s
Аудио RU: AC3, 6 ch, 48 kHz, 384 kbps
Аудио EN: AC3, 6 ch, 48 kHz, 448 kbps
Субтитры: Русские (Forced, full), английские

General
Unique ID : 123625982524023474753314045793202050245 (0x5D017F87B94BA1D906091479936794C5)
Complete name : D:uTorrentРипы wolf1245.Till Death.2021.DUB.iTunes.HDRip-AVC.[wolf1245.ExKinoRay].mkv
Format : Matroska
Format version : Version 4
File size : 1.86 GiB
Duration : 1 h 30 min
Overall bit rate : 2 940 kb/s
Movie name : .Till Death.2021.DUB.iTunes.HDRip-AVC.[wolf1245.ExKinoRay]
Encoded date : UTC 2021-10-17 06:51:32
Writing application : mkvmerge v62.0.0 ('Apollo') 64-bit
Writing library : libebml v1.4.2 + libmatroska v1.6.4
Video
ID : 1
Format : AVC
Format/Info : Advanced Video Codec
Format profile : High@L4.1
Format settings : CABAC / 14 Ref Frames
Format settings, CABAC : Yes
Format settings, Reference frames : 14 frames
Codec ID : V_MPEG4/ISO/AVC
Duration : 1 h 28 min
Bit rate : 2 150 kb/s
Width : 1 024 pixels
Height : 430 pixels
Display aspect ratio : 2.40:1
Frame rate mode : Constant
Frame rate : 23.976 (24000/1001) FPS
Color space : YUV
Chroma subsampling : 4:2:0
Bit depth : 8 bits
Scan type : Progressive
Bits/(Pixel*Frame) : 0.204
Stream size : 1.33 GiB (72%)
Title : -=[wolf1245.ExKinoRay]=-
Writing library : x264 core 161 r3020 d198931
Encoding settings : cabac=1 / ref=14 / deblock=1:-3:-3 / analyse=0x3:0x133 / me=umh / subme=11 / psy=1 / psy_rd=0.98:0.07 / mixed_ref=1 / me_range=48 / chroma_me=1 / trellis=2 / 8x8dct=1 / cqm=0 / deadzone=21,11 / fast_pskip=1 / chroma_qp_offset=-3 / threads=10 / lookahead_threads=2 / sliced_threads=0 / nr=0 / decimate=1 / interlaced=0 / bluray_compat=0 / constrained_intra=0 / bframes=10 / b_pyramid=2 / b_adapt=2 / b_bias=0 / direct=3 / weightb=1 / open_gop=0 / weightp=2 / keyint=240 / keyint_min=24 / scenecut=40 / intra_refresh=0 / rc_lookahead=60 / rc=2pass / mbtree=1 / bitrate=2150 / ratetol=1.0 / qcomp=0.60 / qpmin=0 / qpmax=69 / qpstep=4 / cplxblur=20.0 / qblur=0.5 / vbv_maxrate=50000 / vbv_bufsize=62500 / nal_hrd=none / filler=0 / ip_ratio=1.40 / aq=3:0.80
Language : English
Default : Yes
Forced : No
Audio #1
ID : 2
Format : AC-3
Format/Info : Audio Coding 3
Commercial name : Dolby Digital
Codec ID : A_AC3
Duration : 1 h 30 min
Bit rate mode : Constant
Bit rate : 384 kb/s
Channel(s) : 6 channels
Channel layout : L R C LFE Ls Rs
Sampling rate : 48.0 kHz
Frame rate : 31.250 FPS (1536 SPF)
Compression mode : Lossy
Stream size : 248 MiB (13%)
Title : iTunes | DUB
Language : Russian
Service kind : Complete Main
Default : Yes
Forced : No
Audio #2
ID : 3
Format : AC-3
Format/Info : Audio Coding 3
Commercial name : Dolby Digital
Codec ID : A_AC3
Duration : 1 h 28 min
Bit rate mode : Constant
Bit rate : 448 kb/s
Channel(s) : 6 channels
Channel layout : L R C LFE Ls Rs
Sampling rate : 48.0 kHz
Frame rate : 31.250 FPS (1536 SPF)
Compression mode : Lossy
Stream size : 285 MiB (15%)
Title : Original
Language : English
Service kind : Complete Main
Default : No
Forced : No
Text #1
ID : 4
Format : UTF-8
Codec ID : S_TEXT/UTF8
Codec ID/Info : UTF-8 Plain Text
Duration : 1 h 17 min
Bit rate : 0 b/s
Count of elements : 12
Stream size : 299 Bytes (0%)
Title : Forced
Language : Russian
Default : Yes
Forced : Yes
Text #2
ID : 5
Format : UTF-8
Codec ID : S_TEXT/UTF8
Codec ID/Info : UTF-8 Plain Text
Duration : 1 h 25 min
Bit rate : 36 b/s
Count of elements : 673
Stream size : 22.8 KiB (0%)
Title : Full
Language : Russian
Default : No
Forced : No
Text #3
ID : 6
Format : UTF-8
Codec ID : S_TEXT/UTF8
Codec ID/Info : UTF-8 Plain Text
Duration : 1 h 16 min
Bit rate : 31 b/s
Count of elements : 686
Stream size : 17.6 KiB (0%)
Title : Full
Language : English
Default : No
Forced : No
Text #4
ID : 7
Format : UTF-8
Codec ID : S_TEXT/UTF8
Codec ID/Info : UTF-8 Plain Text
Duration : 1 h 22 min
Bit rate : 36 b/s
Count of elements : 845
Stream size : 22.4 KiB (0%)
Title : SDH
Language : English
Default : No
Forced : No
Menu
00:00:00.000 : :Chapter 01
00:05:47.806 : :Chapter 02
00:13:54.250 : :Chapter 03
00:22:28.305 : :Chapter 04
00:29:15.337 : :Chapter 05
00:35:37.302 : :Chapter 06
00:42:12.780 : :Chapter 07
00:49:18.622 : :Chapter 08
00:56:26.592 : :Chapter 09
01:03:18.211 : :Chapter 10
01:13:15.933 : :Chapter 11
01:23:03.478 : :Chapter 12
Релиз от:
Автор релиза:
pb.wtf



Скачать В западне через торрент https://i116.fastpic.org/big/2021/1017/84/5c5f3f850abd5d84a407b162e69f5784.jpg Скачать, смотреть онлайн В западне бесплантно в хорошем качестве Описание: Романтический вечер в честь годовщины свадьбы оборачивается настоящим кошмаром, когда наутро Эмма оказывается прикованной ... 10 10 7
Торрент: Зарегистрирован [2021-10-17 07:09] · скачан: 160 раз
Статус: √ проверено
Размер: 1.86 GB
Как cкачать? Как скачать В западне через торрент | UTorrent

28-11-2019 20:33  

Отключить всю рекламу на сайте

    Дорогой пользователь! Огромная просьба, поблагодарите релизера, оцените раздачу и оставьте свои комментарий, если Вы скачали В западне через торрент бесплатно!
    Комментировать посты могут только пользователи прошедшие не сложную регистрацию
    Показать сообщения:    

    В западне через торрент
    Скачать бесплатно В западне
    В западне скачать торрент
    В западне смотреть онлайн
    Cкачать фильм В западне бесплатно
    В западне скачать торрент в хорошем качестве
    В западне смотреть онлайн бесплатно в хорошем качестве


    Вы не можете начинать темы
    Вы не можете отвечать на сообщения
    Вы не можете редактировать свои сообщения
    Вы не можете удалять свои сообщения
    Вы не можете голосовать в опросах
    Вы не можете прикреплять файлы к сообщениям
    Вы можете скачивать файлы