Присоединяйтесь к нам в Telegram!, здесь всегда актуальный адрес сайта, оперативная поддержка и многое другое!!

>

5.9

iTunes

7.4

iTunes

9.4

1 сезон

1

7.4

2 сезон

7.2

iTunes

7.3

1 сезон

13

6.1

iTunes

8.3

GOG

30

ULTIMATE

pack

9.9

Лицензия

ВАЖНО

ИГРА 18+

pack

7.3

RePack

MK11

7.7

RePack

jed

7.8

RePack

fifa19

8.5

RePack

RDR2

RePack

NEED FOR SPEED™ PAYBACK

5 сезон

9 сезон

Бесстыжие 9 сезон

Все сериалы

все сериалы на PB.wtf

RePack

FAR CRY 5

Anonymous, доброе утро, мы катастрофически не успеваем собрать деньги на оплату серверов, помогите нам пожалуйста 5,10,15р., для нас важна любая помощь . В качестве благодарности мы отключим Вам всю рекламу на сайте (укажите свой ник в строку Ваше имя)!

×
  
Magnet ссылка

Поместье / The Manor (Аксель Кэролин) [2021, ужасы, WEB-DLRip-AVC] MVO [HDRezka Studio] от ExKinoRay pb.wtf

Поместье через торрент pb.wtf

Раздают: 2 [ 0 KB/s ]
Размер: 1.67 GB | Добавлен: 1 мес. 12 д. назад | Торрент скачан:48 раз
Смотреть онлайн Поместье | Скачать    Ребята, помогите собрать деньги на оплату серверов!!!

17-10-2021 10:06 Поместье Скачать торрент  


Поместье / The Manor
Информация о фильме:
Название: Поместье
Оригинальное название: The Manor
Год выхода: 2021
Жанр: ужасы
Режиссер: Аксель Кэролин

В ролях: Барбара Херши, Брюс Дэвисон, Николас Александр, Джилл Ларсон, Фран Беннетт, Кэти А. Кин, Цейра Пайтон, Нэнси Лайнхэн Чарльз, Шелли Робертсон, Стэйси Трэвис

Описание: Джудит Олбрайт пожилая женщина, которая пережила инсульт. После этого она переезжает в исторический дом престарелых, чтобы находиться под постоянным присмотром. Вот только героиня начинает подозревать, что постояльцев этого заведения преследует нечто сверхъестественное.



Страна: США
Студия: Amazon Studios, Blumhouse Television
Продолжительность: 01:21:11
Перевод: Профессиональный (многоголосый, закадровый) - HDRezka Studio



Информация о файле:
Кодек: AVC
Формат: MKV
Качество: WEB-DLRip-AVC
Видео: MPEG-4 AVC, 1024x428, 23.976 fps, 2050 kbps
Аудио RU: AC3, 6 ch, 48 kHz, 448 kbps
Аудио EN: AC3, 6 ch, 48 kHz, 448 kbps
Субтитры: Русские (Forced, full), английские

x264 info: frame I:1275 Avg QP:11.67 size: 78521
x264 info: frame P:26955 Avg QP:14.17 size: 22786
x264 info: frame B:88561 Avg QP:16.31 size: 6027
x264 info: consecutive B-frames: 2.6% 2.4% 7.9% 39.9% 12.5% 22.5% 4.2% 4.8% 1.1% 0.7% 1.2%
General
Unique ID : 131487885751517072063179838261831456079 (0x62EBA54945CA694CD491DE670D18D54F)
Complete name : D:uTorrentРипы wolf1245The Manor.2021.MVO.HDRezka.WEB-DLRip-AVC.[-wolf1245.ExKinoRay-].mkv
Format : Matroska
Format version : Version 4
File size : 1.67 GiB
Duration : 1 h 21 min
Overall bit rate : 2 948 kb/s
Movie name : The Manor.2021.MVO.HDRezka.WEB-DLRip-AVC.[]
Encoded date : UTC 2021-10-17 09:48:03
Writing application : mkvmerge v62.0.0 ('Apollo') 64-bit
Writing library : libebml v1.4.2 + libmatroska v1.6.4
Video
ID : 1
Format : AVC
Format/Info : Advanced Video Codec
Format profile : High@L4.1
Format settings : CABAC / 12 Ref Frames
Format settings, CABAC : Yes
Format settings, Reference frames : 12 frames
Codec ID : V_MPEG4/ISO/AVC
Duration : 1 h 21 min
Bit rate : 2 050 kb/s
Width : 1 024 pixels
Height : 428 pixels
Display aspect ratio : 2.40:1
Frame rate mode : Constant
Frame rate : 23.976 (24000/1001) FPS
Color space : YUV
Chroma subsampling : 4:2:0
Bit depth : 8 bits
Scan type : Progressive
Bits/(Pixel*Frame) : 0.195
Stream size : 1.16 GiB (70%)
Title : -=[]=-
Writing library : x264 core 161 r3020 d198931
Encoding settings : cabac=1 / ref=12 / deblock=1:-3:-2 / analyse=0x3:0x133 / me=umh / subme=10 / psy=1 / psy_rd=1.00:0.05 / mixed_ref=1 / me_range=32 / chroma_me=1 / trellis=2 / 8x8dct=1 / cqm=0 / deadzone=21,11 / fast_pskip=1 / chroma_qp_offset=-3 / threads=10 / lookahead_threads=2 / sliced_threads=0 / nr=0 / decimate=1 / interlaced=0 / bluray_compat=0 / constrained_intra=0 / bframes=10 / b_pyramid=2 / b_adapt=2 / b_bias=0 / direct=3 / weightb=1 / open_gop=0 / weightp=2 / keyint=240 / keyint_min=24 / scenecut=40 / intra_refresh=0 / rc_lookahead=60 / rc=2pass / mbtree=0 / bitrate=2050 / ratetol=1.0 / qcomp=0.60 / qpmin=0 / qpmax=69 / qpstep=4 / cplxblur=20.0 / qblur=0.5 / vbv_maxrate=50000 / vbv_bufsize=62500 / nal_hrd=none / filler=0 / ip_ratio=1.40 / pb_ratio=1.30 / aq=3:0.80
Language : English
Default : Yes
Forced : No
Color range : Limited
Color primaries : BT.709
Transfer characteristics : BT.709
Matrix coefficients : BT.709
Audio #1
ID : 2
Format : AC-3
Format/Info : Audio Coding 3
Commercial name : Dolby Digital
Codec ID : A_AC3
Duration : 1 h 21 min
Bit rate mode : Constant
Bit rate : 448 kb/s
Channel(s) : 6 channels
Channel layout : L R C LFE Ls Rs
Sampling rate : 48.0 kHz
Frame rate : 31.250 FPS (1536 SPF)
Compression mode : Lossy
Stream size : 260 MiB (15%)
Title : [MVO] HDRezka Studio
Language : Russian
Service kind : Complete Main
Default : Yes
Forced : No
Audio #2
ID : 3
Format : AC-3
Format/Info : Audio Coding 3
Commercial name : Dolby Digital
Codec ID : A_AC3
Duration : 1 h 21 min
Bit rate mode : Constant
Bit rate : 448 kb/s
Channel(s) : 6 channels
Channel layout : L R C LFE Ls Rs
Sampling rate : 48.0 kHz
Frame rate : 31.250 FPS (1536 SPF)
Compression mode : Lossy
Stream size : 260 MiB (15%)
Title : Original
Language : English
Service kind : Complete Main
Default : No
Forced : No
Text #1
ID : 4
Format : UTF-8
Codec ID : S_TEXT/UTF8
Codec ID/Info : UTF-8 Plain Text
Duration : 1 h 10 min
Bit rate : 1 b/s
Count of elements : 17
Stream size : 779 Bytes (0%)
Title : [forced]
Language : Russian
Default : Yes
Forced : No
Text #2
ID : 5
Format : UTF-8
Codec ID : S_TEXT/UTF8
Codec ID/Info : UTF-8 Plain Text
Duration : 1 h 20 min
Bit rate : 79 b/s
Count of elements : 953
Stream size : 46.7 KiB (0%)
Title : [full]
Language : Russian
Default : No
Forced : No
Text #3
ID : 6
Format : UTF-8
Codec ID : S_TEXT/UTF8
Codec ID/Info : UTF-8 Plain Text
Duration : 1 h 20 min
Bit rate : 65 b/s
Count of elements : 1444
Stream size : 38.4 KiB (0%)
Title : English
Language : English
Default : No
Forced : No
Релиз от:
Автор релиза:
pb.wtf



Скачать Поместье через торрент https://i116.fastpic.org/big/2021/1017/a0/fa946e55c9e662916de414ec8137aba0.jpeg Скачать, смотреть онлайн Поместье бесплантно в хорошем качестве Описание: Джудит Олбрайт пожилая женщина, которая пережила инсульт. После этого она переезжает в исторический дом престарелых, чтобы ... 10 10 4
Info! Золотая раздача, скачанное не засчитывается.
Торрент: Зарегистрирован [2021-10-17 10:06] · скачан: 48 раз
Статус: √ проверено
Размер: 1.67 GB
Как cкачать? Как скачать Поместье через торрент | UTorrent

28-11-2019 20:33  

Отключить всю рекламу на сайте

19-10-2021 18:43 Поместье Скачать торрент  

Это самый тупой фильм который я видел)pb.wtf



    Дорогой пользователь! Огромная просьба, поблагодарите релизера, оцените раздачу и оставьте свои комментарий, если Вы скачали Поместье через торрент бесплатно!
    Комментировать посты могут только пользователи прошедшие не сложную регистрацию
    Показать сообщения:    

    Поместье через торрент
    Скачать бесплатно Поместье
    Поместье скачать торрент
    Поместье смотреть онлайн
    Cкачать фильм Поместье бесплатно
    Поместье скачать торрент в хорошем качестве
    Поместье смотреть онлайн бесплатно в хорошем качестве


    Вы не можете начинать темы
    Вы не можете отвечать на сообщения
    Вы не можете редактировать свои сообщения
    Вы не можете удалять свои сообщения
    Вы не можете голосовать в опросах
    Вы не можете прикреплять файлы к сообщениям
    Вы можете скачивать файлы