Всегда рабочее зеркало без VPN и Proxy просто перед .vidak.icu напиши любое слово или цифру, Пример http://9z8k.vidak.icu

MVO

MVO

1 сезон

1

1 сезон

iTunes

1 сезон

13

1 сезон

Deluxe

pack

Рекомендуем

Repack

30

ВАЖНО

RePack

MK11

RePack

jed

RePack

fifa19

RePack

RDR2

RePack

NEED FOR SPEED™ PAYBACK

Кинопоиск HD

6 сезон

 Острые козырьки 6 сезон

Все сериалы

все сериалы на PB.wtf

RePack

FAR CRY 5
  
Magnet ссылка

Босс-молокосос 2 / The Boss Baby: Family Business (Том МакГрат) [2021, Мультфильм, комедия, приключения, семейный, BDRip-AVC] DUB [Пифагор] от ExKinoRay pb.wtf

Босс-молокосос 2 через торрент pb.wtf

Раздают: 2 [ 0.3 KB/s ]
Размер: 2.58 GB | Добавлен: 9 мес. назад | Торрент скачан:382 раза
Смотреть онлайн Босс-молокосос 2 | Скачать    Ребята, помогите собрать деньги на оплату серверов!!!

17-10-2021 13:50 Босс-молокосос 2 Скачать торрент  


Босс-молокосос 2 / The Boss Baby: Family Business
Информация о фильме:
Название: Босс-молокосос 2
Оригинальное название: The Boss Baby: Family Business
Год выхода: 2021
Жанр: Мультфильм, комедия, приключения, семейный
Режиссер: Том МакГрат

В ролях: Алек Болдуин, Эми Седарис, Джеймс Марсден, Джефф Голдблюм, Лиза Кудроу, Ева Лонгория, Джеймс МакГрат, Ариана Гринблатт, Джимми Киммел

Описание: Братья Темплтон выросли и отдалились друг от друга. Но все меняется с появлением нового босса-молокососа с суперсовременным подходом, который воссоединяет семью и вдохновляет героев на новые бизнес-свершения.



Страна: США
Студия: DreamWorks Animation
Продолжительность: 01:47:12
Перевод: Дублированный - Пифагор



Информация о файле:
Кодек: AVC
Формат: MKV
Качество: BDRip-AVC | The.Boss.Baby.Family.Business.2021.BDREMUX.1080p.seleZen
Видео: MPEG-4 AVC, 1024x428, 23.976 fps, 2550 kbps
Аудио RU: AC3, 6 ch, 48 kHz, 448 kbps
Аудио EN: AC3, 6 ch, 48 kHz, 448 kbps
Субтитры: Русские (2 x Full), английские

x264 info: frame I:1394 Avg QP:15.04 size: 71041
x264 info: frame P:44963 Avg QP:18.42 size: 23523
x264 info: frame B:107873 Avg QP:21.14 size: 8285
x264 info: consecutive B-frames: 5.5% 6.4% 13.1% 51.9% 8.6% 11.2% 0.9% 2.0% 0.2% 0.1% 0.1%
General
Unique ID : 128254117302861178268037533061566606198 (0x607CD8312E84933825968AD256F2AB76)
Complete name : D:uTorrentРипы wolf1245The.Boss.Baby.Family.Business.2021.DUB.Pifagor.BDRip-AVC.[wolf1245.ExKinoRay].mkv
Format : Matroska
Format version : Version 4
File size : 2.58 GiB
Duration : 1 h 47 min
Overall bit rate : 3 447 kb/s
Movie name : The.Boss.Baby.Family.Business.2021.DUB.Pifagor.BDRip-AVC.[wolf1245.ExKinoRay]
Encoded date : UTC 2021-10-17 13:33:22
Writing application : mkvmerge v62.0.0 ('Apollo') 64-bit
Writing library : libebml v1.4.2 + libmatroska v1.6.4
Video
ID : 1
Format : AVC
Format/Info : Advanced Video Codec
Format profile : [email protected]
Format settings : CABAC / 12 Ref Frames
Format settings, CABAC : Yes
Format settings, Reference frames : 12 frames
Codec ID : V_MPEG4/ISO/AVC
Duration : 1 h 47 min
Bit rate : 2 550 kb/s
Width : 1 024 pixels
Height : 428 pixels
Display aspect ratio : 2.40:1
Frame rate mode : Constant
Frame rate : 23.976 (24000/1001) FPS
Color space : YUV
Chroma subsampling : 4:2:0
Bit depth : 8 bits
Scan type : Progressive
Bits/(Pixel*Frame) : 0.243
Stream size : 1.91 GiB (74%)
Title : -=[wolf1245.ExKinoRay]=-
Writing library : x264 core 161 r3020 d198931
Encoding settings : cabac=1 / ref=12 / deblock=1:-3:-3 / analyse=0x3:0x133 / me=umh / subme=11 / psy=1 / psy_rd=1.02:0.07 / mixed_ref=1 / me_range=48 / chroma_me=1 / trellis=2 / 8x8dct=1 / cqm=0 / deadzone=21,11 / fast_pskip=1 / chroma_qp_offset=-3 / threads=10 / lookahead_threads=2 / sliced_threads=0 / nr=0 / decimate=1 / interlaced=0 / bluray_compat=0 / constrained_intra=0 / bframes=10 / b_pyramid=2 / b_adapt=2 / b_bias=0 / direct=3 / weightb=1 / open_gop=0 / weightp=2 / keyint=240 / keyint_min=24 / scenecut=40 / intra_refresh=0 / rc_lookahead=60 / rc=2pass / mbtree=0 / bitrate=2550 / ratetol=1.0 / qcomp=0.60 / qpmin=0 / qpmax=69 / qpstep=4 / cplxblur=20.0 / qblur=0.5 / vbv_maxrate=50000 / vbv_bufsize=62500 / nal_hrd=none / filler=0 / ip_ratio=1.40 / pb_ratio=1.30 / aq=1:0.80
Language : English
Default : Yes
Forced : No
Audio #1
ID : 2
Format : AC-3
Format/Info : Audio Coding 3
Commercial name : Dolby Digital
Codec ID : A_AC3
Duration : 1 h 47 min
Bit rate mode : Constant
Bit rate : 448 kb/s
Channel(s) : 6 channels
Channel layout : L R C LFE Ls Rs
Sampling rate : 48.0 kHz
Frame rate : 31.250 FPS (1536 SPF)
Compression mode : Lossy
Stream size : 344 MiB (13%)
Title : DUB | Пифагор
Language : Russian
Service kind : Complete Main
Default : Yes
Forced : No
Audio #2
ID : 3
Format : AC-3
Format/Info : Audio Coding 3
Commercial name : Dolby Digital
Codec ID : A_AC3
Duration : 1 h 47 min
Bit rate mode : Constant
Bit rate : 448 kb/s
Channel(s) : 6 channels
Channel layout : L R C LFE Ls Rs
Sampling rate : 48.0 kHz
Frame rate : 31.250 FPS (1536 SPF)
Compression mode : Lossy
Stream size : 344 MiB (13%)
Title : Original
Language : English
Service kind : Complete Main
Default : No
Forced : No
Text #1
ID : 4
Format : UTF-8
Codec ID : S_TEXT/UTF8
Codec ID/Info : UTF-8 Plain Text
Duration : 1 h 38 min
Bit rate : 131 b/s
Count of elements : 1815
Stream size : 94.9 KiB (0%)
Title : Full v.1
Language : Russian
Default : No
Forced : No
Text #2
ID : 5
Format : UTF-8
Codec ID : S_TEXT/UTF8
Codec ID/Info : UTF-8 Plain Text
Duration : 1 h 37 min
Bit rate : 129 b/s
Count of elements : 1945
Stream size : 92.6 KiB (0%)
Title : Full v.2
Language : Russian
Default : No
Forced : No
Text #3
ID : 6
Format : UTF-8
Codec ID : S_TEXT/UTF8
Codec ID/Info : UTF-8 Plain Text
Duration : 1 h 45 min
Bit rate : 83 b/s
Count of elements : 2462
Stream size : 65.1 KiB (0%)
Language : English
Default : No
Forced : No
Menu
00:00:00.000 : :Chapter 01
00:04:18.382 : :Chapter 02
00:09:50.673 : :Chapter 03
00:13:43.364 : :Chapter 04
00:19:51.816 : :Chapter 05
00:24:55.119 : :Chapter 06
00:29:12.125 : :Chapter 07
00:34:22.018 : :Chapter 08
00:38:09.245 : :Chapter 09
00:44:36.299 : :Chapter 10
00:51:25.124 : :Chapter 11
01:00:47.853 : :Chapter 12
01:04:54.474 : :Chapter 13
01:08:08.209 : :Chapter 14
01:13:27.403 : :Chapter 15
01:18:38.172 : :Chapter 16
01:22:44.418 : :Chapter 17
01:27:13.437 : :Chapter 18
01:35:06.701 : :Chapter 19
01:38:13.721 : :Chapter 20
Релиз от:
Автор релиза:
pb.wtf



Скачать Босс-молокосос 2 через торрент https://i116.fastpic.org/big/2021/1017/68/97cb51fbc1bc5f44580b8379aded6368.jpg Скачать, смотреть онлайн Босс-молокосос 2 бесплантно в хорошем качестве Описание: Братья Темплтон выросли и отдалились друг от друга. Но все меняется с появлением нового босса-молокососа с суперсовременным ... 10 10 5
Info! Золотая раздача, скачанное не засчитывается.
Торрент: Зарегистрирован [2021-10-17 13:50] · скачан: 382 раз
Статус: √ проверено
Размер: 2.58 GB
Как cкачать? Как скачать Босс-молокосос 2 через торрент | UTorrent

28-11-2019 20:33  

Отключить вcю реклaмy на сайте

    Дорогой пользователь! Огромная просьба, поблагодарите релизера, оцените раздачу и оставьте свои комментарий, если Вы скачали Босс-молокосос 2 через торрент бесплатно!
    Комментировать посты могут только пользователи прошедшие не сложную регистрацию
    Показать сообщения:    

    Босс-молокосос 2 через торрент
    Скачать бесплатно Босс-молокосос 2
    Босс-молокосос 2 скачать торрент
    Босс-молокосос 2 смотреть онлайн
    Cкачать фильм Босс-молокосос 2 бесплатно
    Босс-молокосос 2 скачать торрент в хорошем качестве
    Босс-молокосос 2 смотреть онлайн бесплатно в хорошем качестве


    Вы не можете начинать темы
    Вы не можете отвечать на сообщения
    Вы не можете редактировать свои сообщения
    Вы не можете удалять свои сообщения
    Вы не можете голосовать в опросах
    Вы не можете прикреплять файлы к сообщениям
    Вы можете скачивать файлы