Всегда рабочее зеркало без VPN и Proxy просто перед .vidak.icu напиши любое слово или цифру, Пример http://mzt3.vidak.icu

MVO

Лицензия

1 сезон

1

1 сезон

iTunes

1 сезон

13

1 сезон

Deluxe

pack

Рекомендуем

Пиратка

30

ВАЖНО

RePack

MK11

RePack

jed

RePack

fifa19

RePack

RDR2

RePack

NEED FOR SPEED™ PAYBACK

Кинопоиск HD

6 сезон

 Острые козырьки 6 сезон

Все сериалы

все сериалы на PB.wtf

RePack

FAR CRY 5
  
Magnet ссылка

Дюна / Dune (Дени Вильнёв) [2021, Фантастика, боевик, драма, приключения, BDRip-AVC] DUB [Пифагор ] от ExKinoRay pb.wtf

Смотреть онлайн Дюна | Скачать    Ребята, помогите собрать деньги на оплату серверов!!!

19-10-2021 16:45 Дюна Скачать торрент  


Дюна / Dune
Информация о фильме:
Название: Дюна
Оригинальное название: Dune: Part One
Год выхода: 2021
Жанр: Фантастика, боевик, драма, приключения
Режиссер: Дени Вильнёв

В ролях: Тимоти Шаламе, Ребекка Фергюсон, Оскар Айзек, Джош Бролин, Джейсон Момоа, Зендея, Стеллан Скарсгард, Хавьер Бардем, Дэйв Батиста, Шарлотта Рэмплинг, Стивен Хендерсон, Шэрон Дункан-Брюстер, Чан Чэнь, Давид Дастмалчян, Бабс Олусанмокун

Описание: Наследник знаменитого дома Атрейдесов Пол отправляется вместе с семьей на одну из самых опасных планет во Вселенной — Арракис. Здесь нет ничего, кроме песка, палящего солнца, гигантских чудовищ и основной причины межгалактических конфликтов — невероятно ценного ресурса, который называется меланж. В результате захвата власти Пол вынужден бежать и скрываться, и это становится началом его эпического путешествия. Враждебный мир Арракиса приготовил для него множество тяжелых испытаний, но только тот, кто готов взглянуть в глаза своему страху, достоин стать избранным. Экранизация научно-фантастического романа американского писателя Фрэнка Герберта.



Страна: США, Канада, Венгрия
Студия: Warner Bros., Villeneuve Films, Legendary Pictures
Продолжительность: 02:35:24
Перевод: Дублированный - Пифагор



Информация о файле:
Кодек: AVC
Формат: MKV
Качество: BDRip-AVC
Видео: MPEG-4 AVC, 1024x426, 23.976 fps, 1550 kbps
Аудио RU: AC3, 6 ch, 48 kHz, 448 kbps
Аудио EN: AC3, 6 ch, 48 kHz, 448 kbps
Субтитры: Русские (Forced, full), английские

x264 info: frame I:1735 Avg QP:12.65 size: 57366
x264 info: frame P:42964 Avg QP:15.73 size: 17991
x264 info: frame B:178915 Avg QP:17.59 size: 5210
x264 info: consecutive B-frames: 1.6% 1.6% 6.1% 11.3% 15.1% 39.2% 11.0% 6.8% 3.9% 1.1% 0.7% 0.7% 0.8%
General
Unique ID : 30898644847985445186428877887448611284 (0x173EDCCF1E3F0DA0B39AC3B7412CF9D4)
Complete name : D:uTorrentРипы wolf1245Dune.Part.One.2021.DUB.PIFAGOR.BDRip-AVC.[wolf1245.ExKinoRay].mkv
Format : Matroska
Format version : Version 4
File size : 2.66 GiB
Duration : 2 h 35 min
Overall bit rate : 2 446 kb/s
Movie name : Dune.Part.One.2021.DUB.PIFAGOR.BDRip-AVC.[wolf1245.ExKinoRay]
Encoded date : UTC 2021-12-05 05:04:39
Writing application : mkvmerge v63.0.0 ('Everything') 64-bit
Writing library : libebml v1.4.2 + libmatroska v1.6.4
Video
ID : 1
Format : AVC
Format/Info : Advanced Video Codec
Format profile : High@L4.1
Format settings : CABAC / 14 Ref Frames
Format settings, CABAC : Yes
Format settings, Reference frames : 14 frames
Codec ID : V_MPEG4/ISO/AVC
Duration : 2 h 35 min
Bit rate : 1 550 kb/s
Width : 1 024 pixels
Height : 426 pixels
Display aspect ratio : 2.40:1
Frame rate mode : Constant
Frame rate : 23.976 (24000/1001) FPS
Color space : YUV
Chroma subsampling : 4:2:0
Bit depth : 8 bits
Scan type : Progressive
Bits/(Pixel*Frame) : 0.148
Stream size : 1.68 GiB (63%)
Title : -=[wolf1245.ExKinoRay]=-
Writing library : x264 core 161 r3020 d198931
Encoding settings : cabac=1 / ref=14 / deblock=1:-3:-3 / analyse=0x3:0x133 / me=umh / subme=11 / psy=1 / psy_rd=1.02:0.05 / mixed_ref=1 / me_range=48 / chroma_me=1 / trellis=2 / 8x8dct=1 / cqm=0 / deadzone=21,11 / fast_pskip=1 / chroma_qp_offset=-3 / threads=10 / lookahead_threads=2 / sliced_threads=0 / nr=0 / decimate=0 / interlaced=0 / bluray_compat=0 / constrained_intra=0 / bframes=12 / b_pyramid=2 / b_adapt=2 / b_bias=0 / direct=3 / weightb=1 / open_gop=0 / weightp=2 / keyint=240 / keyint_min=24 / scenecut=40 / intra_refresh=0 / rc_lookahead=60 / rc=2pass / mbtree=0 / bitrate=1550 / ratetol=1.0 / qcomp=0.60 / qpmin=0 / qpmax=69 / qpstep=4 / cplxblur=20.0 / qblur=0.5 / vbv_maxrate=50000 / vbv_bufsize=62500 / nal_hrd=none / filler=0 / ip_ratio=1.40 / pb_ratio=1.30 / aq=2:0.80
Language : English
Default : Yes
Forced : No
Audio #1
ID : 2
Format : AC-3
Format/Info : Audio Coding 3
Commercial name : Dolby Digital
Codec ID : A_AC3
Duration : 2 h 35 min
Bit rate mode : Constant
Bit rate : 448 kb/s
Channel(s) : 6 channels
Channel layout : L R C LFE Ls Rs
Sampling rate : 48.0 kHz
Frame rate : 31.250 FPS (1536 SPF)
Compression mode : Lossy
Stream size : 498 MiB (18%)
Title : Dub
Language : Russian
Service kind : Complete Main
Default : No
Forced : No
Audio #2
ID : 3
Format : AC-3
Format/Info : Audio Coding 3
Commercial name : Dolby Digital
Format settings : Dolby Surround EX
Codec ID : A_AC3
Duration : 2 h 35 min
Bit rate mode : Constant
Bit rate : 448 kb/s
Channel(s) : 6 channels
Channel layout : L R C LFE Ls Rs
Sampling rate : 48.0 kHz
Frame rate : 31.250 FPS (1536 SPF)
Compression mode : Lossy
Stream size : 498 MiB (18%)
Title : Original
Language : English
Service kind : Complete Main
Default : No
Forced : No
Text #1
ID : 4
Format : UTF-8
Codec ID : S_TEXT/UTF8
Codec ID/Info : UTF-8 Plain Text
Duration : 2 h 27 min
Bit rate : 2 b/s
Count of elements : 51
Stream size : 2.45 KiB (0%)
Title : Forced
Language : Russian
Default : Yes
Forced : Yes
Text #2
ID : 5
Format : UTF-8
Codec ID : S_TEXT/UTF8
Codec ID/Info : UTF-8 Plain Text
Duration : 2 h 28 min
Bit rate : 53 b/s
Count of elements : 1254
Stream size : 58.0 KiB (0%)
Title : Full
Language : Russian
Default : No
Forced : No
Text #3
ID : 6
Format : UTF-8
Codec ID : S_TEXT/UTF8
Codec ID/Info : UTF-8 Plain Text
Duration : 2 h 25 min
Bit rate : 31 b/s
Count of elements : 1353
Stream size : 34.1 KiB (0%)
Title : Full
Language : English
Default : No
Forced : No
Text #4
ID : 7
Format : UTF-8
Codec ID : S_TEXT/UTF8
Codec ID/Info : UTF-8 Plain Text
Duration : 2 h 26 min
Bit rate : 41 b/s
Count of elements : 1724
Stream size : 44.3 KiB (0%)
Title : SDH
Language : English
Default : No
Forced : No
Menu
00:00:00.000 : :Chapter 01
00:03:16.154 : :Chapter 02
00:12:54.816 : :Chapter 03
00:22:00.736 : :Chapter 04
00:29:16.922 : :Chapter 05
00:39:10.932 : :Chapter 06
00:47:19.795 : :Chapter 07
00:56:53.493 : :Chapter 08
01:06:50.381 : :Chapter 09
01:16:44.892 : :Chapter 10
01:26:00.655 : :Chapter 11
01:36:00.380 : :Chapter 12
01:45:09.470 : :Chapter 13
01:53:50.323 : :Chapter 14
02:03:38.536 : :Chapter 15
02:12:13.342 : :Chapter 16
02:20:45.771 : :Chapter 17
02:27:27.797 : :Chapter 18
Релиз от:
Автор релиза:
pb.wtf



Скачать
Чтобы иметь возможность скачивать с Торрент Трекера, нужно Зарегистрироваться

Как скачивать  ·  Рейтинг и ограничения



Последний раз редактировалось: Lithuania (2021-12-05 05:22), всего редактировалось 2 раз(а)

28-11-2019 20:33  

Отключить всю рекламу на сайте

19-10-2021 19:37 Дюна Скачать торрент  

Полнейший провал Вильнёва.Кому дорого свое время лучше уж гляньте 1984 года Дюну режисерскую версию.Зачем ставят 7.9 рейтинга если там твердая 4?Я читал и серию книг и фильм посмотрел.Лучше уж книга чем это смотреть.ИМХО.pb.wtf



07-11-2021 12:28 Дюна Скачать торрент  

serenkii.11 писал(а):

Полнейший провал Вильнёва.Кому дорого свое время лучше уж гляньте 1984 года Дюну режисерскую версию.Зачем ставят 7.9 рейтинга если там твердая 4?Я читал и серию книг и фильм посмотрел.Лучше уж книга чем это смотреть.ИМХО.

О вкусах не спорят, но есть интересная закономерность, которую я замечаю уже довольно давно.

Люди читающие книги раньше экранизации - всегда оценят больше именно книгу, а не фильм по книге. Это касается не только Дюны, но и Игры Престолов и тд.

Я книгу не читал, но смотрел дюну 1984 года раньше Вильнева, и мне новая Дюна понравилась больше. Она красивая, масштабная и очень атмосферная. У линча много чернухи, на мой взгляд. Про сюжет ничего говорить не буду, так как он в принципе у всех фильмов плюс-минус идентиченpb.wtf



07-11-2021 13:29 Дюна Скачать торрент  

serenkii.11 писал(а):

Полнейший провал Вильнёва.Кому дорого свое время лучше уж гляньте 1984 года Дюну режисерскую версию.Зачем ставят 7.9 рейтинга если там твердая 4?Я читал и серию книг и фильм посмотрел.Лучше уж книга чем это смотреть.ИМХО.

СОГЛАСЕН НО ДЛЯ МЕНЯ ЕЩЁ И НАИМУТНЕЙШИЙ ФИЛЬМ ЕЛИ ДОСМОТРЕЛ КАПЕЦ ...pb.wtf



07-11-2021 16:02 Дюна Скачать торрент  

Cyberpunk писал(а):

serenkii.11 писал(а):

Полнейший провал Вильнёва.Кому дорого свое время лучше уж гляньте 1984 года Дюну режисерскую версию.Зачем ставят 7.9 рейтинга если там твердая 4?Я читал и серию книг и фильм посмотрел.Лучше уж книга чем это смотреть.ИМХО.

О вкусах не спорят, но есть интересная закономерность, которую я замечаю уже довольно давно.

Люди читающие книги раньше экранизации - всегда оценят больше именно книгу, а не фильм по книге. Это касается не только Дюны, но и Игры Престолов и тд.

Я книгу не читал, но смотрел дюну 1984 года раньше Вильнева, и мне новая Дюна понравилась больше. Она красивая, масштабная и очень атмосферная. У линча много чернухи, на мой взгляд. Про сюжет ничего говорить не буду, так как он в принципе у всех фильмов плюс-минус идентичен

у меня такое же чувствоpb.wtf



07-11-2021 16:05 Дюна Скачать торрент  

1984 года более полный вариант
кстати и графика там вполне приличная
здесь ооочень много выброшено даже по сравнению с фильмом 1984

главный герой явно с уклоном в голубизну-вялый,какой то не такой
из таких предводители не выходят
надо было джейсона моммоа ставить на эту роль

тема джессики,отца и ордена жриц джесерит урезана очень
да вообще все урезано

выброшено очень много
просто новая версия
в 80х годах за подобную версию их всех закопали бы живьем поклонники дюны

лучше посмотрите 1984г
----------------------------------------
кстати-сначала посмотрел фильм-понравился--потом пытался читать-не зашло-тягомотина
видео версия 1984 самое тоpb.wtf



11-11-2021 17:40 Дюна Скачать торрент  

serenkii.11 писал(а):

Полнейший провал Вильнёва.Кому дорого свое время лучше уж гляньте 1984 года Дюну режисерскую версию.Зачем ставят 7.9 рейтинга если там твердая 4?Я читал и серию книг и фильм посмотрел.Лучше уж книга чем это смотреть.ИМХО.

Не согласен. Отличная экранизация книги, правда для тех кто книгу читалpb.wtf



05-12-2021 09:53 Дюна Скачать торрент  

dr.Ma4eto писал(а):

serenkii.11 писал(а):

Полнейший провал Вильнёва.Кому дорого свое время лучше уж гляньте 1984 года Дюну режисерскую версию.Зачем ставят 7.9 рейтинга если там твердая 4?Я читал и серию книг и фильм посмотрел.Лучше уж книга чем это смотреть.ИМХО.

Не согласен. Отличная экранизация книги, правда для тех кто книгу читал

Согласен. Прежде чем смотреть фильм. нужно прочитать книгу. Там всё описано.pb.wtf



    Дорогой пользователь! Огромная просьба, поблагодарите релизера, оцените раздачу и оставьте свои комментарий, если Вы скачали Дюна через торрент бесплатно!
    Комментировать посты могут только пользователи прошедшие не сложную регистрацию
    Показать сообщения:    

    Дюна через торрент
    Скачать бесплатно Дюна
    Дюна скачать торрент
    Дюна смотреть онлайн
    Cкачать фильм Дюна бесплатно
    Дюна скачать торрент в хорошем качестве
    Дюна смотреть онлайн бесплатно в хорошем качестве


    Вы не можете начинать темы
    Вы не можете отвечать на сообщения
    Вы не можете редактировать свои сообщения
    Вы не можете удалять свои сообщения
    Вы не можете голосовать в опросах
    Вы не можете прикреплять файлы к сообщениям
    Вы не можете скачивать файлы