Достать ножи: Стеклянная луковица

MVO

Добыча

Дубляж

Уэнсдэй

1 сезон

Тор

Дубляж

13 клиническая

1 сезон

Жестокая ночь

MVO

Одни из нас

1 сезон

Deluxe

pack

Рекомендуем

30

Пиратка

ВАЖНО

ВАЖНО

Ghostwire

Пиратка

jed

RePack

nioh2

RePack

RDR2

RePack

NEED FOR SPEED™ PAYBACK

RePack

скачать торрент

Кинопоиск HD

Острые козырьки 6 сезон

6 сезон

FAR CRY 6

RePack

скачать торрент

Лицензия

скачать торрент

MVO

1

1 сезон

скачать торрент

1 сезон

скачать торрент

Лицензия

  

Узники страны призраков / Prisoners of the Ghostland (Сион Соно) [2021 г., фантастика, боевик, WEB-DLRip, Дубляж "iTunes"]

Узники страны призраков через торрент pb.wtf

Размер: 720 MB | Добавлен: 1 год 3 мес. назад | Торрент скачан:41 раз
Смотреть онлайн | Скачать | Поддержите нас   

19-10-2021 18:24 Узники страны призраков Скачать торрент  

Узники страны призраков / Prisoners of the Ghostland
Год выпуска: 2021
Страна: США / Patriot Pictures , Eleven Arts , Baked Studios
Жанр: фантастика, боевик
Продолжительность: 01:42:47
Перевод: Дубляж (iTunes)
«Его личный Судный день уже настал. У человечества — все впереди»

Режиссер: Сион Соно

rating

В ролях: Николас Кейдж, София Бутелла, Ник Кассаветис, Билл Моусли, Так Сакагути, Ян Дэйс, Чарльз Гловер, Cici Zhou, Луис Курихара, Тэцу Ватанабэ

Описание: В мире будущего герой-одиночка отправляется на опасное задание — он должен вернуть домой пропавшую без вести внучку Губернатора. Пути к отступлению нет: на него надет начиненный взрывчаткой костюм. Он еще не знает, что от успеха его миссии зависит судьба человечества.

Качество: WEB-DLRip
Формат: AVI
Видео кодек: DivX
Аудио кодек: MP3
Видео: 640x272 (2.35:1), 23.976 fps, DivX Codec 4.x ~841 kbps avg, 0.20 bit/pixel
Аудио: 48 kHz, MPEG Layer 3, 2 ch, ~128.00 kbps avg

Общее
Полное имя : G:\ФИЛЬМЫ\Узники страны призраков.2021.D.WEB-DLRip.avi
Формат : AVI
Формат/Информация : Audio Video Interleave
Размер файла : 720 Мбайт
Продолжительность : 1 ч. 42 м.
Общий поток : 979 Кбит/сек
Программа кодирования : VirtualDubMod 1.5.10.3 | www.virtualdub-fr.org || (build 2550/release)
Библиотека кодирования : VirtualDubMod build 2550/release

Видео
Идентификатор : 0
Формат : MPEG-4 Visual
Профиль формата : Advanced [email protected]
Настройки формата : BVOP2
Параметр BVOP формата : 2
Параметр QPel формата : Нет
Параметр GMC формата : Без точки перехода
Параметр матрицы формата : Default (MPEG)
Идентификатор кодека : DIVX
Идентификатор кодека/Информация : Project Mayo
Идентификатор кодека/Подсказка : DivX 4
Продолжительность : 1 ч. 42 м.
Битрейт : 842 Кбит/сек
Ширина : 640 пикселей
Высота : 272 пикселя
Соотношение сторон : 2,35:1
Частота кадров : 23,976 (24000/1001) кадра/сек
Цветовое пространство : YUV
Субдискретизация насыщенности : 4:2:0
Битовая глубина : 8 бит
Тип развёртки : Прогрессивная
Метод сжатия : С потерями
Бит/(Пиксели*Кадры) : 0.202
Размер потока : 619 Мбайт (86%)
Библиотека кодирования : XviD 1.2.1 (UTC 2008-12-04)

Аудио
Идентификатор : 1
Формат : MPEG Audio
Версия формата : Version 1
Профиль формата : Layer 3
Настройки формата : Joint stereo / MS Stereo
Идентификатор кодека : 55
Идентификатор кодека/Подсказка : MP3
Продолжительность : 1 ч. 42 м.
Вид битрейта : Постоянный
Битрейт : 128 Кбит/сек
Каналы : 2 канала
Частота : 48,0 КГц
Частота кадров : 41,667 кадра/сек (1152 SPF)
Метод сжатия : С потерями
Размер потока : 94,1 Мбайт (13%)
Выравнивание : Соединение по промежуткам
Продолжительность промежутка : 42 мс. (1,00 видеокадр)
Время предзагрузки промежутка : 504 мс.
Библиотека кодирования : LAME3.99r
Настройки программы : -m j -V 4 -q 2 -lowpass 17 -b 128

Report created by : MediaInfoLib - v21.09
Report created on : UTC 2021-10-19 18:06:15




Скачать Узники страны призраков через торрент https://pic1.kartinco.top/new/img/2021-10/19/x3ljlkyblopx0udu150wd2xze.jpg Скачать, смотреть онлайн Узники страны призраков бесплантно в хорошем качестве Описание: В мире будущего герой-одиночка отправляется на опасное задание — он должен вернуть домой пропавшую без вести внучку Губернатора. ... 8.5 10 6
Торрент: Зарегистрирован [2021-10-19 18:24] · скачан: 41 раз
Статус: √ проверено
Размер: 720 MB
Как cкачать? Как скачать Узники страны призраков через торрент | UTorrent

% Раздел Тема Автор DL S | L
Ultra HD (UHD: 2K, 4K, 8K) [ 36.71 GB ] Узники страны призраков / Prisoners of the Ghostland | DUB | 2160p bober100 Скачать
1 | 0
Фильмы [HD 720p, 1080p] (Хороший звук DUB, MVO) [ 4.16 GB ] Узники страны призраков / Prisoners of the Ghostland | DUB | 720p bober100 Скачать
1 | 0
Фильмы [HD 720p, 1080p] (Хороший звук DUB, MVO) [ 7.55 GB ] Узники страны призраков / Prisoners of the Ghostland | DUB | 1080p bober100 Скачать
1 | 0
Фильмы 2021 [DVDrip, WEB-DLRip, HDrip] (DUB, MVO) [ 2.04 GB ] Узники страны призраков / Prisoners of the Ghostland | DUB | HDRip-AVC Lithuania Скачать
1 | 0
Фильмы (Blu-ray, BD-Remux, HDDVD) [ 18.32 GB ] Узники страны призраков / Prisoners of the Ghostland | DUB | BD Remux 1080p bober100 Скачать
1 | 0
Фильмы 2021 [DVDrip, WEB-DLRip, HDrip] (DUB, MVO) [ 1.46 GB ] Узники страны призраков / Prisoners of the Ghostland | DUB | DLRip killermax2013 Скачать
2 | 0
Фильмы с авторской озвучкой [ 5.34 GB ] Узники страны призраков / Prisoners of the Ghostland | AVO | 1080p bober100 Скачать
1 | 0

28-11-2019 20:33  


Отключить вcю реклaмy на сайте, в т.ч. и в плеере онлайн просмотра!

    Дорогой пользователь! Огромная просьба, поблагодарите релизера, оцените раздачу и оставьте свои комментарий, если Вы скачали Узники страны призраков через торрент бесплатно!!
    Комментировать посты могут только пользователи прошедшие не сложную регистрацию
    Показать сообщения:    


    Узники страны призраков через торрент
    Скачать бесплатно Узники страны призраков
    Узники страны призраков скачать торрент
    Узники страны призраков смотреть онлайн
    Cкачать фильм Узники страны призраков бесплатно
    Узники страны призраков скачать торрент в хорошем качестве
    Узники страны призраков смотреть онлайн бесплатно в хорошем качестве
    Вы не можете начинать темы
    Вы не можете отвечать на сообщения
    Вы не можете редактировать свои сообщения
    Вы не можете удалять свои сообщения
    Вы не можете голосовать в опросах
    Вы не можете прикреплять файлы к сообщениям
    Вы можете скачивать файлы
    Узники страны призраков / Prisoners of the Ghostland [2021 г., фантастика, боевик, WEB-DLRip, Дубляж "iTunes"] смотреть онлайн, скачать торрент picoco.icu