Достать ножи: Стеклянная луковица

MVO

Добыча

Дубляж

Уэнсдэй

1 сезон

Тор

Дубляж

13 клиническая

1 сезон

Жестокая ночь

MVO

Одни из нас

1 сезон

Deluxe

pack

Рекомендуем

30

Пиратка

ВАЖНО

ВАЖНО

Ghostwire

Пиратка

jed

RePack

nioh2

RePack

RDR2

RePack

NEED FOR SPEED™ PAYBACK

RePack

скачать торрент

Кинопоиск HD

Острые козырьки 6 сезон

6 сезон

FAR CRY 6

RePack

скачать торрент

Лицензия

скачать торрент

MVO

1

1 сезон

скачать торрент

1 сезон

скачать торрент

Лицензия

  

Куколки / Honey Girls (Трей Фанджой) [2021 г., семейный, музыка, WEB-DLRip, Профессиональный многоголосый закадровый "iTunes"]

Куколки через торрент pb.wtf

Размер: 719 MB | Добавлен: 1 год 3 мес. назад | Торрент скачан:6 раз
Смотреть онлайн | Скачать | Поддержите нас   

20-10-2021 18:29 Куколки Скачать торрент  

Куколки / Honey Girls
Год выпуска: 2021
Страна: США / Build-a-Bear Workshop Entertainment , Foundation Media Partners
Жанр: семейный, музыка
Продолжительность: 01:29:37
Перевод: Профессиональный многоголосый закадровый (iTunes)
Субтитры: русские форсированные – вшитые

Режиссер: Трей Фанджой

rating

В ролях: Ашанти, Ava Grace, Aliyah Mastin, Frankie Mcnellis, Tessa Brooks, Крис Готье, Скайлар Рэдзион, Дилан Ратцлафф, Tiernan Hickson, Дженнифер Тонг

Описание: Известная вокалистка Fancy G организует собственный музыкальный конкурс, в котором стремятся принять участие все юные таланты, ведь приз — статус новой мировой поп-звезды, которую выберет кумир миллионов Fancy G. Трое конкурсанток объединяются в группу под названием Honey Girls, которая тут же становится вирусным мегахитом. Однако этим они нарушили правила конкурса и теперь каждой из участниц предстоит решить, что важнее: дружба или победа в конкурсе.

Качество: WEB-DLRip
Формат: AVI
Видео кодек: DivX
Аудио кодек: MP3
Видео: 640x344 (1.86:1), 23.976 fps, DivX Codec 4.x ~984 kbps avg, 0.19 bit/pixel
Аудио: 48 kHz, MPEG Layer 3, 2 ch, ~128.00 kbps avg

Общее
Полное имя : G:\ФИЛЬМЫ\Куколки.2021.WEB-DLRip.avi
Формат : AVI
Формат/Информация : Audio Video Interleave
Размер файла : 719 Мбайт
Продолжительность : 1 ч. 29 м.
Общий поток : 1 122 Кбит/сек
Программа кодирования : VirtualDubMod 1.5.10.3 | www.virtualdub-fr.org || (build 2550/release)
Библиотека кодирования : VirtualDubMod build 2550/release

Видео
Идентификатор : 0
Формат : MPEG-4 Visual
Профиль формата : Advanced [email protected]
Настройки формата : BVOP2
Параметр BVOP формата : 2
Параметр QPel формата : Нет
Параметр GMC формата : Без точки перехода
Параметр матрицы формата : Default (MPEG)
Идентификатор кодека : DIVX
Идентификатор кодека/Информация : Project Mayo
Идентификатор кодека/Подсказка : DivX 4
Продолжительность : 1 ч. 29 м.
Битрейт : 985 Кбит/сек
Ширина : 640 пикселей
Высота : 344 пикселя
Соотношение сторон : 1,85:1
Частота кадров : 23,976 (24000/1001) кадра/сек
Цветовое пространство : YUV
Субдискретизация насыщенности : 4:2:0
Битовая глубина : 8 бит
Тип развёртки : Прогрессивная
Метод сжатия : С потерями
Бит/(Пиксели*Кадры) : 0.187
Размер потока : 631 Мбайт (88%)
Библиотека кодирования : XviD 1.2.1 (UTC 2008-12-04)

Аудио
Идентификатор : 1
Формат : MPEG Audio
Версия формата : Version 1
Профиль формата : Layer 3
Настройки формата : Joint stereo
Идентификатор кодека : 55
Идентификатор кодека/Подсказка : MP3
Продолжительность : 1 ч. 29 м.
Вид битрейта : Постоянный
Битрейт : 128 Кбит/сек
Каналы : 2 канала
Частота : 48,0 КГц
Частота кадров : 41,667 кадра/сек (1152 SPF)
Метод сжатия : С потерями
Размер потока : 82,1 Мбайт (11%)
Выравнивание : Соединение по промежуткам
Продолжительность промежутка : 42 мс. (1,00 видеокадр)
Время предзагрузки промежутка : 504 мс.
Библиотека кодирования : LAME3.99r
Настройки программы : -m j -V 4 -q 2 -lowpass 17 -b 128

Report created by : MediaInfoLib - v21.09
Report created on : UTC 2021-10-20 18:09:59




Скачать Куколки через торрент https://pic1.kartinco.top/new/img/2021-10/20/imzruaypk9fuwiu396nm6v6c6.jpg Скачать, смотреть онлайн Куколки бесплантно в хорошем качестве Описание: Известная вокалистка Fancy G организует собственный музыкальный конкурс, в котором стремятся принять участие все юные таланты, ... 10 10 1
Торрент: Зарегистрирован [2021-10-20 18:29] · скачан: 6 раз
Статус: √ проверено
Размер: 719 MB
Как cкачать? Как скачать Куколки через торрент | UTorrent

28-11-2019 20:33  


Отключить вcю реклaмy на сайте, в т.ч. и в плеере онлайн просмотра!

    Дорогой пользователь! Огромная просьба, поблагодарите релизера, оцените раздачу и оставьте свои комментарий, если Вы скачали Куколки через торрент бесплатно!!
    Комментировать посты могут только пользователи прошедшие не сложную регистрацию
    Показать сообщения:    


    Куколки через торрент
    Скачать бесплатно Куколки
    Куколки скачать торрент
    Куколки смотреть онлайн
    Cкачать фильм Куколки бесплатно
    Куколки скачать торрент в хорошем качестве
    Куколки смотреть онлайн бесплатно в хорошем качестве
    Вы не можете начинать темы
    Вы не можете отвечать на сообщения
    Вы не можете редактировать свои сообщения
    Вы не можете удалять свои сообщения
    Вы не можете голосовать в опросах
    Вы не можете прикреплять файлы к сообщениям
    Вы можете скачивать файлы
    Куколки / Honey Girls [2021 г., семейный, музыка, WEB-DLRip, Профессиональный многоголосый закадровый "iTunes"] смотреть онлайн, скачать торрент picoco.icu