Всегда рабочее зеркало без VPN и Proxy просто перед .vidak.icu напиши любое слово или цифру, Пример http://uy25.vidak.icu

MVO

Лицензия

1 сезон

1

1 сезон

iTunes

1 сезон

13

1 сезон

Deluxe

pack

Рекомендуем

Пиратка

30

ВАЖНО

RePack

MK11

RePack

jed

RePack

fifa19

RePack

RDR2

RePack

NEED FOR SPEED™ PAYBACK

Кинопоиск HD

6 сезон

 Острые козырьки 6 сезон

Все сериалы

все сериалы на PB.wtf

RePack

FAR CRY 5
  
Magnet ссылка

Мистериум: Журнал 64 / Дело номер 64 / Journal 64 (Кристоффер Боэ) [2018, Триллер, криминал, детектив, BDRip 1080p] DUB [iTunes] pb.wtf

Мистериум: Журнал 64 через торрент pb.wtf

Раздают: 2 [ 0 KB/s ]
Размер: 8.66 GB | Добавлен: 8 мес. назад | Торрент скачан:370 раз
Смотреть онлайн Мистериум: Журнал 64 | Скачать    Ребята, помогите собрать деньги на оплату серверов!!!

21-10-2021 04:52 Мистериум: Журнал 64 Скачать торрент  

Мистериум: Журнал 64 | Дело номер 64
Journal 64
Год выпуска: 2018
Страна: Дания, Германия
Студия: Film i Väst, Zentropa Entertainments
Жанр: Триллер, криминал, детектив
Продолжительность: 01:57:54
Перевод: Дублированный | iTunes
Субтитры: Русские (Full), английские, датские

Режиссер: Кристоффер Боэ

rating

В ролях: Николай Ли Каас, Фарес Фарес, Джохэнн Луиз Шмидт, Сёрен Пильмарк, Фанни Борнедаль, Клара Росагер, Луиза Скоу, Аманда Раделяк, Андерс Хове, Николас Бро

Описание: |В копенгагенской квартире найдены замурованными три мумифицированных трупа, сидящих вокруг стола. За дело берётся отдел Q, специализирующийся на давних нераскрытых преступлениях. Расследование приводит детективов Карла Мёрка и Ассада в закрытое много лет назад женское учреждение на острове, куда раньше ссылали девушек, несоответствовавших общественной морали.

Качество: BDRip 1080p
Формат: MKV

Видео: MPEG-4 AVC, 9500 Кb/s, 1920x800, 23.976 fps
Аудио #01: 48 kHz, AC3, 5.1, 384 Kbps | iTunes | RUS |
Аудио #03: 48 kHz, AC3, 5.1, 640 Kbps | Оригинал |
скриншот  скриншот  скриншот  скриншот  

Complete name : Misterium.Zhurnal.64.2018.BDRip.1080p.ELEKTRI4KA.UNIONGANG.mkv
Format : Matroska
Format version : Version 4
File size : 8.66 GiB
Duration : 1 h 57 min
Overall bit rate : 10.5 Mb/s
Movie name : Misterium.Zhurnal.64.2018.BDRip.1080p.ELEKTRI4KA.UNIONGANG.
Encoded date : UTC 2021-10-20 18:43:23
Writing application : mkvmerge v8.3.0 ('Over the Horizon') 32bit
Writing library : libebml v1.3.1 + libmatroska v1.4.2

Video
ID : 1
Format : AVC
Format/Info : Advanced Video Codec
Format profile : High@L4.1
Format settings : CABAC / 5 Ref Frames
Format settings, CABAC : Yes
Format settings, Reference frames : 5 frames
Codec ID : V_MPEG4/ISO/AVC
Duration : 1 h 57 min
Bit rate : 9 500 kb/s
Width : 1 920 pixels
Height : 800 pixels
Display aspect ratio : 2.40:1
Frame rate mode : Constant
Frame rate : 24.000 FPS
Color space : YUV
Chroma subsampling : 4:2:0
Bit depth : 8 bits
Scan type : Progressive
Bits/(Pixel*Frame) : 0.258
Stream size : 7.82 GiB (90%)
Writing library : x264 core 148 r2638 7599210
Encoding settings : cabac=1 / ref=5 / deblock=1:-3:-3 / analyse=0x3:0x133 / me=umh / subme=10 / psy=1 / psy_rd=1.00:0.20 / mixed_ref=1 / me_range=48 / chroma_me=1 / trellis=2 / 8x8dct=1 / cqm=0 / deadzone=21,11 / fast_pskip=1 / chroma_qp_offset=-3 / threads=6 / lookahead_threads=1 / sliced_threads=0 / nr=0 / decimate=1 / interlaced=0 / bluray_compat=0 / constrained_intra=0 / bframes=10 / b_pyramid=2 / b_adapt=2 / b_bias=0 / direct=3 / weightb=1 / open_gop=0 / weightp=2 / keyint=250 / keyint_min=23 / scenecut=40 / intra_refresh=0 / rc_lookahead=60 / rc=2pass / mbtree=1 / bitrate=9500 / ratetol=1.0 / qcomp=0.60 / qpmin=0 / qpmax=69 / qpstep=4 / cplxblur=20.0 / qblur=0.5 / ip_ratio=1.40 / aq=1:1.00
Language : Danish
Default : Yes
Forced : No

Audio #1
ID : 2
Format : AC-3
Format/Info : Audio Coding 3
Commercial name : Dolby Digital
Codec ID : A_AC3
Duration : 1 h 57 min
Bit rate mode : Constant
Bit rate : 384 kb/s
Channel(s) : 6 channels
Channel layout : L R C LFE Ls Rs
Sampling rate : 48.0 kHz
Frame rate : 31.250 FPS (1536 SPF)
Compression mode : Lossy
Stream size : 324 MiB (4%)
Title : DUB (iTunes)
Language : Russian
Service kind : Complete Main
Default : Yes
Forced : Yes

Audio #2
ID : 3
Format : AC-3
Format/Info : Audio Coding 3
Commercial name : Dolby Digital
Codec ID : A_AC3
Duration : 1 h 57 min
Bit rate mode : Constant
Bit rate : 640 kb/s
Channel(s) : 6 channels
Channel layout : L R C LFE Ls Rs
Sampling rate : 48.0 kHz
Frame rate : 31.250 FPS (1536 SPF)
Compression mode : Lossy
Stream size : 540 MiB (6%)
Title : Original
Language : Danish
Service kind : Complete Main
Default : No
Forced : No

Text #1
ID : 4
Format : UTF-8
Codec ID : S_TEXT/UTF8
Codec ID/Info : UTF-8 Plain Text
Duration : 1 h 53 min
Bit rate : 76 b/s
Count of elements : 1000
Stream size : 63.7 KiB (0%)
Title : Full
Language : Russian
Default : No
Forced : No

Text #2
ID : 5
Format : UTF-8
Codec ID : S_TEXT/UTF8
Codec ID/Info : UTF-8 Plain Text
Duration : 1 h 52 min
Bit rate : 50 b/s
Count of elements : 1097
Stream size : 41.4 KiB (0%)
Title : Full
Language : English
Default : No
Forced : No

Text #3
ID : 6
Format : UTF-8
Codec ID : S_TEXT/UTF8
Codec ID/Info : UTF-8 Plain Text
Duration : 1 h 48 min
Bit rate : 0 b/s
Count of elements : 15
Stream size : 579 Bytes (0%)
Title : FORCED
Language : Danish
Default : No
Forced : No

Text #4
ID : 7
Format : UTF-8
Codec ID : S_TEXT/UTF8
Codec ID/Info : UTF-8 Plain Text
Duration : 1 h 56 min
Bit rate : 50 b/s
Count of elements : 1010
Stream size : 43.2 KiB (0%)
Language : Danish
Default : No
Forced : No

Menu
00:00:00.000 : da:Chapter 01
00:09:59.542 : da:Chapter 02
00:19:59.583 : da:Chapter 03
00:29:59.708 : da:Chapter 04
00:39:59.750 : da:Chapter 05
00:49:59.583 : da:Chapter 06
00:59:59.958 : da:Chapter 07
01:09:59.833 : da:Chapter 08
01:19:59.583 : da:Chapter 09
01:29:59.667 : da:Chapter 10
01:39:59.542 : da:Chapter 11
01:49:59.625 : da:Chapter 12

pb.wtf



Скачать Мистериум: Журнал 64 через торрент https://i116.fastpic.org/big/2021/1020/51/2c275898fe11a212a5a73910e1b34751.jpg Скачать, смотреть онлайн Мистериум: Журнал 64 бесплантно в хорошем качестве Описание: |В копенгагенской квартире найдены замурованными три мумифицированных трупа, сидящих вокруг стола. За дело берётся отдел Q, ... 10 10 10
Info! Золотая раздача, скачанное не засчитывается.
Торрент: Зарегистрирован [2021-10-21 04:52] · скачан: 370 раз
Статус: √ проверено
Размер: 8.66 GB
Как cкачать? Как скачать Мистериум: Журнал 64 через торрент | UTorrent

% Раздел Тема Автор DL S | L
Фильмы 2018 [DVDrip, WEB-DLRip, HDrip] (DUB, MVO) [ 1.46 GB ] Мистериум: Журнал 64 / Дело номер 64 / Journal 64 [2018 BDRip] DUB [ Blu-ray RUS] bober100 Скачать
3 | 0
Фильмы 2018 [DVDrip, WEB-DLRip, HDrip] (DUB, MVO) [ 2.38 GB ] Мистериум: Журнал 64 / Дело номер 64 / Journal 64 [2018 BDRip-AVC] DUB [ Blu-ray RUS] bober100 Скачать
2 | 0
Фильмы 2018 [DVDrip, WEB-DLRip, HDrip] (DUB, MVO) [ 2.18 GB ] Мистериум: Журнал 64 / Дело номер 64 / Journal 64 [2018 BDRip] DUB [ Blu-ray RUS] bober100 Скачать
1 | 0

28-11-2019 20:33  

Отключить всю рекламу на сайте

    Дорогой пользователь! Огромная просьба, поблагодарите релизера, оцените раздачу и оставьте свои комментарий, если Вы скачали Мистериум: Журнал 64 через торрент бесплатно!
    Комментировать посты могут только пользователи прошедшие не сложную регистрацию
    Показать сообщения:    

    Мистериум: Журнал 64 через торрент
    Скачать бесплатно Мистериум: Журнал 64
    Мистериум: Журнал 64 скачать торрент
    Мистериум: Журнал 64 смотреть онлайн
    Cкачать фильм Мистериум: Журнал 64 бесплатно
    Мистериум: Журнал 64 скачать торрент в хорошем качестве
    Мистериум: Журнал 64 смотреть онлайн бесплатно в хорошем качестве


    Вы не можете начинать темы
    Вы не можете отвечать на сообщения
    Вы не можете редактировать свои сообщения
    Вы не можете удалять свои сообщения
    Вы не можете голосовать в опросах
    Вы не можете прикреплять файлы к сообщениям
    Вы можете скачивать файлы