Присоединяйтесь к нам в Telegram!, здесь всегда актуальный адрес сайта, оперативная поддержка и многое другое!!

>

5.9

iTunes

7.4

iTunes

9.4

1 сезон

1

7.4

2 сезон

7.2

iTunes

7.3

1 сезон

13

6.1

iTunes

8.3

GOG

30

ULTIMATE

pack

9.9

Лицензия

ВАЖНО

ИГРА 18+

pack

7.3

RePack

MK11

7.7

RePack

jed

7.8

RePack

fifa19

8.5

RePack

RDR2

RePack

NEED FOR SPEED™ PAYBACK

5 сезон

9 сезон

Бесстыжие 9 сезон

Все сериалы

все сериалы на PB.wtf

RePack

FAR CRY 5

Anonymous, доброе утро, мы катастрофически не успеваем собрать деньги на оплату серверов, помогите нам пожалуйста 5,10,15р., для нас важна любая помощь . В качестве благодарности мы отключим Вам всю рекламу на сайте (укажите свой ник в строку Ваше имя)!

×
  
Magnet ссылка

Хэллоуин убивает / Halloween Kills (Дэвид Гордон Грин) [2021, Ужасы, триллер, криминал, WEB-DLRip-AVC] MVO [HDRezka Studio] pb.wtf

Хэллоуин убивает через торрент pb.wtf

Раздают: 3 [ 0 KB/s ]
Размер: 2.14 GB | Добавлен: 1 мес. 11 д. назад | Торрент скачан:172 раза
Смотреть онлайн Хэллоуин убивает | Скачать    Ребята, помогите собрать деньги на оплату серверов!!!

22-10-2021 03:52 Хэллоуин убивает Скачать торрент  

Хэллоуин убивает | Halloween Kills
Год выпуска: 2021
Страна: Великобритания, США
Выпущено: Universal Pictures, Miramax, Blumhouse Productions
Жанр: Ужасы, триллер, криминал
Продолжительность: 01:45:13
Перевод: Профессиональный (многоголосый) | HDRezka Studio
Субтитры: Русские (full (MENINSUB)), английские

Режиссер: Дэвид Гордон Грин

rating

В ролях: Джейми Ли Кёртис, Джуди Грир, Энди Мэтичак, Энтони Майкл Холл, Джеймс Джуд Кортни, Ник Касл, Эйрон Армстронг, Уилл Пэттон, Томас Манн, Джим Каммингс

Описание: Лори Строуд, ее дочь Карен и внучка Эллисон поймали Майкла Майерса в ловушку и оставили гореть в подвале их дома. Раненая Лори отправляется в больницу, уверенная в том, что ее преследователь наконец-то мертв. Но Майклу удается освободиться, и его кровавая расправа продолжается. Лори должна справиться с болью и снова защищаться, однако, в этот раз весь город готов дать отпор неудержимому монстру. Женщины семьи Строуд присоединяются к группе выживших, которые хотят взять правосудие в свои руки, выследить Майкла и остановить его раз и навсегда. Зло должно умереть сегодня.

Качество: WEB-DLRip-AVC
Формат: MKV

Видео: MPEG-4 AVC, 2276 Кбит/с, 1024x428
Аудио #1: AC3, 6 ch, 448 Кбит/с | RUS | Censored | |
Аудио #2: E-AC3, 6 ch, 192 Кбит/с | ENG |
скриншот  скриншот  скриншот  скриншот  скриншот  

x264 info: frame I:1163 Avg QP:13.12 size: 61037
x264 info: frame P:35180 Avg QP:16.13 size: 22908
x264 info: frame B:115016 Avg QP:17.93 size: 7976
Общее
Уникальный идентификатор : 253185208286725583057644702780721044743 (0xBE79B2898FEB90FA5E57C9C3CF399D07)
Полное имя : E:TorrentsХэллоуин убивает.2021.WEB-DLRip-AVC_JNS82.mkv
Формат : Matroska
Версия формата : Version 4
Размер файла : 2,14 Гбайт
Продолжительность : 1 ч. 45 м.
Общий поток : 2 916 Кбит/сек
Название фильма : Хэллоуин убивает.2021.WEB-DLRip-AVC_JNS82
Дата кодирования : UTC 2021-10-21 20:13:42
Программа кодирования : mkvmerge v59.0.0 ('Shining Star') 64-bit
Библиотека кодирования : libebml v1.4.2 + libmatroska v1.6.4

Видео
Идентификатор : 1
Формат : AVC
Формат/Информация : Advanced Video Codec
Профиль формата : High@L4.1
Настройки формата : CABAC / 14 Ref Frames
Параметр CABAC формата : Да
Параметр RefFrames формата : 14 кадров
Идентификатор кодека : V_MPEG4/ISO/AVC
Продолжительность : 1 ч. 45 м.
Битрейт : 2 276 Кбит/сек
Ширина : 1 024 пикселя
Высота : 428 пикселей
Соотношение сторон : 2,40:1
Режим частоты кадров : Постоянный
Частота кадров : 23,976 (24000/1001) кадра/сек
Цветовое пространство : YUV
Субдискретизация насыщенности : 4:2:0
Битовая глубина : 8 бит
Тип развёртки : Прогрессивная
Бит/(Пиксели*Кадры) : 0.217
Размер потока : 1,67 Гбайт (78%)
Библиотека кодирования : x264 core 157 r2958 57baac4
Настройки программы : cabac=1 / ref=14 / deblock=1:-3:-3 / analyse=0x3:0x133 / me=umh / subme=11 / psy=1 / psy_rd=1.00:0.07 / mixed_ref=1 / me_range=48 / chroma_me=1 / trellis=2 / 8x8dct=1 / cqm=0 / deadzone=21,11 / fast_pskip=0 / chroma_qp_offset=-3 / threads=8 / lookahead_threads=2 / sliced_threads=0 / nr=0 / decimate=0 / interlaced=0 / bluray_compat=0 / constrained_intra=0 / bframes=14 / b_pyramid=2 / b_adapt=2 / b_bias=0 / direct=3 / weightb=1 / open_gop=0 / weightp=2 / keyint=240 / keyint_min=24 / scenecut=40 / intra_refresh=0 / rc=2pass / mbtree=0 / bitrate=2276 / ratetol=1.0 / qcomp=0.60 / qpmin=0 / qpmax=69 / qpstep=4 / cplxblur=20.0 / qblur=0.5 / ip_ratio=1.40 / pb_ratio=1.30 / aq=1:1.00
Default : Да
Forced : Нет
Цветовой диапазон : Limited
Основные цвета : BT.709
Характеристики трансфера : BT.709
Коэффициенты матрицы : BT.709

Аудио #1
Идентификатор : 2
Формат : AC-3
Формат/Информация : Audio Coding 3
Коммерческое название : Dolby Digital
Идентификатор кодека : A_AC3
Продолжительность : 1 ч. 45 м.
Вид битрейта : Постоянный
Битрейт : 448 Кбит/сек
Каналы : 6 каналов
Channel layout : L R C LFE Ls Rs
Частота : 48,0 КГц
Частота кадров : 31,250 кадров/сек (1536 SPF)
Метод сжатия : С потерями
Размер потока : 337 Мбайт (15%)
Заголовок : HDRezka Studo (censored)
Язык : Russian
Service kind : Complete Main
Default : Да
Forced : Нет

Аудио #2
Идентификатор : 3
Формат : E-AC-3
Формат/Информация : Enhanced AC-3
Коммерческое название : Dolby Digital Plus
Идентификатор кодека : A_EAC3
Продолжительность : 1 ч. 45 м.
Вид битрейта : Постоянный
Битрейт : 192 Кбит/сек
Каналы : 6 каналов
Channel layout : L R C LFE Ls Rs
Частота : 48,0 КГц
Частота кадров : 31,250 кадров/сек (1536 SPF)
Метод сжатия : С потерями
Размер потока : 144 Мбайт (7%)
Язык : English
Service kind : Complete Main
Default : Нет
Forced : Нет

Текст #1
Идентификатор : 4
Формат : UTF-8
Идентификатор кодека : S_TEXT/UTF8
Идентификатор кодека/Информация : UTF-8 Plain Text
Продолжительность : 1 ч. 38 м.
Битрейт : 83 бит/сек
Count of elements : 1451
Размер потока : 59,9 Кбайт (0%)
Заголовок : [full [MENINSUB]]
Язык : Russian
Default : Нет
Forced : Нет

Текст #2
Идентификатор : 5
Формат : UTF-8
Идентификатор кодека : S_TEXT/UTF8
Идентификатор кодека/Информация : UTF-8 Plain Text
Продолжительность : 1 ч. 45 м.
Битрейт : 65 бит/сек
Count of elements : 1874
Размер потока : 50,2 Кбайт (0%)
Язык : English
Default : Нет
Forced : Нет

pb.wtf



Скачать Хэллоуин убивает через торрент https://i116.fastpic.org/big/2021/1022/5e/ed2a96fd0725ed9514820410bab64a5e.jpeg Скачать, смотреть онлайн Хэллоуин убивает бесплантно в хорошем качестве Описание: Лори Строуд, ее дочь Карен и внучка Эллисон поймали Майкла Майерса в ловушку и оставили гореть в подвале их дома. Раненая Лори ... 10 10 9
Торрент: Зарегистрирован [2021-10-22 03:52] · скачан: 172 раз
Статус: √ проверено
Размер: 2.14 GB
Как cкачать? Как скачать Хэллоуин убивает через торрент | UTorrent

% Раздел Тема Автор DL S | L
Фильмы (WEB-DL 720p, 1080p) [ 6.1 GB ] Хэллоуин убивает / Halloween Kills [2021 WEB-DL 1080p] MVO [HDRezka Studio] +DVO [Pazl Voice] bober100 Скачать
7 | 0
T Фильмы 2021 (Звук TS, Cam, VO, DVO) [ 1.83 GB ] Хэллоуин убивает / Halloween Kills [2021 WEB-DLRip-AVC] DVO [Pazl Voice] от ExKinoRay Lithuania Скачать
1 | 0

28-11-2019 20:33  

Отключить всю рекламу на сайте

    Дорогой пользователь! Огромная просьба, поблагодарите релизера, оцените раздачу и оставьте свои комментарий, если Вы скачали Хэллоуин убивает через торрент бесплатно!
    Комментировать посты могут только пользователи прошедшие не сложную регистрацию
    Показать сообщения:    

    Хэллоуин убивает через торрент
    Скачать бесплатно Хэллоуин убивает
    Хэллоуин убивает скачать торрент
    Хэллоуин убивает смотреть онлайн
    Cкачать фильм Хэллоуин убивает бесплатно
    Хэллоуин убивает скачать торрент в хорошем качестве
    Хэллоуин убивает смотреть онлайн бесплатно в хорошем качестве


    Вы не можете начинать темы
    Вы не можете отвечать на сообщения
    Вы не можете редактировать свои сообщения
    Вы не можете удалять свои сообщения
    Вы не можете голосовать в опросах
    Вы не можете прикреплять файлы к сообщениям
    Вы можете скачивать файлы