Всегда рабочее зеркало без VPN и Proxy просто перед .vidak.icu напиши любое слово или цифру, Пример http://gby7.vidak.icu

MVO

Лицензия

1 сезон

1

1 сезон

iTunes

1 сезон

13

1 сезон

Deluxe

pack

Рекомендуем

Пиратка

30

ВАЖНО

RePack

MK11

RePack

jed

RePack

fifa19

RePack

RDR2

RePack

NEED FOR SPEED™ PAYBACK

Кинопоиск HD

6 сезон

 Острые козырьки 6 сезон

Все сериалы

все сериалы на PB.wtf

RePack

FAR CRY 5
  
Magnet ссылка

Дюна / Dune: Part One / Dune (Дени Вильнёв) [2021, Фантастика, боевик, драма, приключения, WEB-DL-HEVC 2160p] DUB [iTunes] +MVO [HDRezka Studio] pb.wtf

Дюна через торрент pb.wtf

Раздают: 6 [ 0 KB/s ]
Размер: 20.74 GB | Добавлен: 8 мес. назад | Торрент скачан:1654 раза
Смотреть онлайн Дюна | Скачать    Ребята, помогите собрать деньги на оплату серверов!!!

22-10-2021 06:45 Дюна Скачать торрент  

Дюна
Dune: Part One | Dune

Год выпуска: 2021
Страна: США, Канада, Венгрия
Выпущено: Legendary Pictures, Villeneuve Films, Warner Bros.
Жанр: Фантастика, боевик, драма, приключения
Продолжительность: 02:35:20
Перевод(ы):
#1: Дублированный | iTunes
#2: Профессиональный многоголосый | HDRezka Studio
Субтитры: Русские (2 x Forced, 2 x full), английские

Режиссер: Дени Вильнёв

rating

В ролях: Тимоти Шаламе, Зендая, Ребекка Фергюсон, Оскар Айзек, Джош Бролин, Джейсон Момоа, Дэйв Батиста, Стеллан Скарсгард, Хавьер Бардем, Шарлотта Рэмплинг, Чан Чэнь, Давид Дастмалчян, Стивен Хендерсон, Шэрон Дункан-Брюстер, Бабс Олусанмокун, Майкл Нардон, Оливер Райан, Глория Обианё

Описание: События ленты разворачиваются в далеком будущем на планете Арракис, единственном источнике главного ресурса вселенной, необходимого для космических перелетов, — специи. По приказу императора глава дома Атрейдесов назначается правителем Арракиса. Его сын, молодой Пол Атрейдес, видит вещие сны и обладает удивительным даром. В его руках оказывается будущее всей планеты и его народа.

Качество: WEB-DL-HEVC 2160p
Формат: MKV

Видео: MPEG-H HEVC, 3840x2160, 17.9 Мbit/s, 23.976 fps
Аудио #01: 48 kHz, AC3, 5.1, 384 Kbps | Дублированный | iTunes | RUS |
Аудио #02: 48 kHz, AC3, 5.1, 448 Kbps | Профессиональный многоголосый | HDRezka Studio | RUS |
Аудио #03: 48 kHz, E-AC3, 5.1, 768 Kbps | Оригинал | ENG |
скриншот  скриншот  скриншот  скриншот  скриншот  

General
Unique ID : 125104836461701993800213219281250299669 (0x5E1E50A89E8901B1A48C2BF6C6502F15)
Complete name : E:Video2Dune.2021.WEB-DL.2160p.HDR.seleZen.mkv
Format : Matroska
Format version : Version 4
File size : 20.7 GiB
Duration : 2 h 35 min
Overall bit rate : 19.0 Mb/s
Movie name : Dune 2021 from seleZen
Encoded date : UTC 2021-10-22 06:31:13
Writing application : mkvmerge v59.0.0 ('Shining Star') 64-bit
Writing library : libebml v1.4.2 + libmatroska v1.6.4

Video
ID : 1
Format : HEVC
Format/Info : High Efficiency Video Coding
Format profile : Main 10@L5@Main
HDR format : SMPTE ST 2086, HDR10 compatible
Codec ID : V_MPEGH/ISO/HEVC
Duration : 2 h 35 min
Bit rate : 17.9 Mb/s
Width : 3 840 pixels
Height : 2 160 pixels
Display aspect ratio : 16:9
Frame rate mode : Constant
Frame rate : 23.976 (24000/1001) FPS
Color space : YUV
Chroma subsampling : 4:2:0
Bit depth : 10 bits
Bits/(Pixel*Frame) : 0.090
Stream size : 19.5 GiB (94%)
Writing library : x265 3.4hy:[Linux][GCC 7.5.0][64 bit] 10bit
Encoding settings : cpuid=1111039 / frame-threads=1 / wpp / no-pmode / no-pme / no-psnr / no-ssim / log-level=2 / input-csp=1 / input-res=3840x2160 / interlace=0 / total-frames=0 / level-idc=0 / high-tier=1 / uhd-bd=0 / ref=4 / no-allow-non-conformance / repeat-headers / annexb / no-aud / no-hrd / info / hash=0 / no-temporal-layers / no-open-gop / min-keyint=96 / keyint=96 / gop-lookahead=0 / bframes=3 / b-adapt=2 / b-pyramid / bframe-bias=0 / rc-lookahead=25 / lookahead-slices=4 / scenecut=40 / hist-scenecut=0 / radl=0 / no-splice / no-intra-refresh / ctu=64 / min-cu-size=8 / rect / no-amp / max-tu-size=32 / tu-inter-depth=1 / tu-intra-depth=1 / limit-tu=0 / rdoq-level=2 / dynamic-rd=0.00 / no-ssim-rd / signhide / no-tskip / nr-intra=0 / nr-inter=0 / no-constrained-intra / strong-intra-smoothing / max-merge=3 / limit-refs=3 / limit-modes / me=3 / subme=3 / merange=57 / temporal-mvp / no-frame-dup / no-hme / weightp / no-weightb / no-analyze-src-pics / deblock=0:0 / sao / no-sao-non-deblock / rd=4 / selective-sao=4 / no-early-skip / rskip / no-fast-intra / no-tskip-fast / no-cu-lossless / no-b-intra / no-splitrd-skip / rdpenalty=0 / psy-rd=2.00 / psy-rdoq=1.00 / no-rd-refine / no-lossless / cbqpoffs=0 / crqpoffs=0 / rc=abr / bitrate=18000 / qcomp=0.60 / qpstep=4 / stats-write=0 / stats-read=2 / cplxblur=20.0 / qblur=0.5 / vbv-maxrate=24500 / vbv-bufsize=24500 / vbv-init=0.6 / vbv-end=0.6 / vbv-end-fr-adj=0.0 / ipratio=1.40 / pbratio=1.30 / aq-mode=2 / aq-strength=1.00 / cutree / zone-count=0 / no-strict-cbr / qg-size=32 / no-rc-grain / qpmax=69 / qpmin=0 / no-const-vbv / sar=0 / overscan=0 / videoformat=5 / range=0 / colorprim=9 / transfer=16 / colormatrix=9 / chromaloc=0 / display-window=0 / master-display=G(13250,34500)B(7500,3000)R(34000,16000)WP(15635,16450)L(40000000,50) / cll=787,239 / min-luma=0 / max-luma=1023 / log2-max-poc-lsb=8 / vui-timing-info / vui-hrd-info / no-concatenation / slices=1 / no-opt-qp-pps / no-opt-ref-list-length-pps / no-multi-pass-opt-rps / scenecut-bias=0.05 / hist-threshold=0.01 / no-opt-cu-delta-qp / no-aq-motion / hdr10 / no-hdr10-opt / no-dhdr10-opt / no-idr-recovery-sei / analysis-reuse-level=0 / analysis-save-reuse-level=0 / analysis-load-reuse-level=0 / scale-factor=0 / refine-intra=0 / refine-inter=0 / refine-mv=1 / refine-ctu-distortion=0 / no-limit-sao / ctu-info=0 / no-lowpass-dct / refine-analysis-type=0 / copy-pic=1 / max-ausize-factor=1.0 / no-dynamic-refine / no-single-sei / no-hevc-aq / no-svt / no-field / qp-adaptation-range=1.00 / no-scenecut-aware-qpconformance-window-offsets / right=0 / bottom=0 / decoder-max-rate=0
Language : English
Default : Yes
Forced : No
Color range : Limited
Color primaries : BT.2020
Transfer characteristics : PQ
Matrix coefficients : BT.2020 non-constant
Mastering display color primaries : Display P3
Mastering display luminance : min: 0.0050 cd/m2, max: 4000 cd/m2
Maximum Content Light Level : 787 cd/m2
Maximum Frame-Average Light Level : 239 cd/m2

Audio #1
ID : 2
Format : AC-3
Format/Info : Audio Coding 3
Commercial name : Dolby Digital
Codec ID : A_AC3
Duration : 2 h 35 min
Bit rate mode : Constant
Bit rate : 384 kb/s
Channel(s) : 6 channels
Channel layout : L R C LFE Ls Rs
Sampling rate : 48.0 kHz
Frame rate : 31.250 FPS (1536 SPF)
Compression mode : Lossy
Stream size : 428 MiB (2%)
Title : Dub [iTunes]
Language : Russian
Service kind : Complete Main
Default : Yes
Forced : Yes

Audio #2
ID : 3
Format : E-AC-3 JOC
Format/Info : Enhanced AC-3 with Joint Object Coding
Commercial name : Dolby Digital Plus with Dolby Atmos
Codec ID : A_EAC3
Duration : 2 h 35 min
Bit rate mode : Constant
Bit rate : 768 kb/s
Channel(s) : 6 channels
Channel layout : L R C LFE Ls Rs
Sampling rate : 48.0 kHz
Frame rate : 31.250 FPS (1536 SPF)
Compression mode : Lossy
Stream size : 854 MiB (4%)
Title : Original
Language : English
Service kind : Complete Main
Default : No
Forced : No
Complexity index : 16
Number of dynamic objects : 15
Bed channel count : 1 channel
Bed channel configuration : LFE

Text #1
ID : 4
Format : UTF-8
Codec ID : S_TEXT/UTF8
Codec ID/Info : UTF-8 Plain Text
Duration : 2 h 27 min
Bit rate : 2 b/s
Count of elements : 51
Stream size : 2.44 KiB (0%)
Title : Forced [iTunes]
Language : Russian
Default : Yes
Forced : Yes

Text #2
ID : 5
Format : UTF-8
Codec ID : S_TEXT/UTF8
Codec ID/Info : UTF-8 Plain Text
Duration : 2 h 28 min
Bit rate : 52 b/s
Count of elements : 1261
Stream size : 56.9 KiB (0%)
Title : Full [iTunes]
Language : Russian
Default : No
Forced : No

Text #3
ID : 6
Format : UTF-8
Codec ID : S_TEXT/UTF8
Codec ID/Info : UTF-8 Plain Text
Duration : 2 h 27 min
Bit rate : 2 b/s
Count of elements : 67
Stream size : 2.94 KiB (0%)
Title : Forced [HDRezka Studio]
Language : Russian
Default : No
Forced : No

Text #4
ID : 7
Format : UTF-8
Codec ID : S_TEXT/UTF8
Codec ID/Info : UTF-8 Plain Text
Duration : 2 h 26 min
Bit rate : 52 b/s
Count of elements : 1002
Stream size : 56.5 KiB (0%)
Title : Full v.2
Language : Russian
Default : No
Forced : No

Text #5
ID : 8
Format : UTF-8
Codec ID : S_TEXT/UTF8
Codec ID/Info : UTF-8 Plain Text
Duration : 2 h 25 min
Bit rate : 31 b/s
Count of elements : 1335
Stream size : 34.0 KiB (0%)
Title : Full
Language : English
Default : No
Forced : No

Text #6
ID : 9
Format : UTF-8
Codec ID : S_TEXT/UTF8
Codec ID/Info : UTF-8 Plain Text
Duration : 2 h 26 min
Bit rate : 41 b/s
Count of elements : 1724
Stream size : 44.3 KiB (0%)
Title : SDH
Language : English
Default : No
Forced : No

pb.wtf



Скачать Дюна через торрент https://a.radikal.ru/a23/2112/ea/029faedd706e.jpg Скачать, смотреть онлайн Дюна бесплантно в хорошем качестве Описание: События ленты разворачиваются в далеком будущем на планете Арракис, единственном источнике главного ресурса вселенной, ... 10 10 43
Info! Золотая раздача, скачанное не засчитывается.
Торрент: Зарегистрирован [2021-10-22 06:45] · скачан: 1 654 раз
Статус: √ проверено
Размер: 20.74 GB
Как cкачать? Как скачать Дюна через торрент | UTorrent

% Раздел Тема Автор DL S | L
3D Фильмы [ 9.52 GB ] Дюна в 3D / Dune: Part One in 3D [2021 BDRip 1080p ] Анаглиф от R.G. HD-Films slaventi-69 Скачать
1 | 0
3D Фильмы [ 10.92 GB ] Дюна 3Д / Dune: Part One / Dune 3D [2021 BDRip 1080p ] DUB [Пифагор / Кинопоиск HD] bober100 Скачать
2 | 0
3D Фильмы [ 21.37 GB ] Дюна в 3Д / Dune: Part One 3D [2021 BDRip 1080p] OverUnder / Вертикальная стереопара serega768 Скачать
1 | 0
Ultra HD (UHD: 2K, 4K, 8K) — видео сверхвысокой чёткости [ 30.16 GB ] Дюна / Dune: Part One / Dune [2021 UHD BDRip 2160p] DUB [Пифагор / Кинопоиск HD] bober100 Скачать
1 | 0
Фильмы [HD 720p, 1080p] (Хороший звук DUB, MVO) [ 8.41 GB ] Дюна / Dune: Part One / Dune [2021 BDRip 720p] DUB [Пифагор / Кинопоиск HD] bober100 Скачать
5 | 0
Ultra HD (UHD: 2K, 4K, 8K) — видео сверхвысокой чёткости [ 69.9 GB ] Дюна / Dune: Part One / Dune [2021 UHD BDRemux 2160p ] DUB [Пифагор / Кинопоиск HD] bober100 Скачать
1 | 0
Ultra HD (UHD: 2K, 4K, 8K) — видео сверхвысокой чёткости [ 74.14 GB ] Дюна / Dune: Part One / Dune [2021 UHD BDRemux 2160p ] DUB [Пифагор / Кинопоиск HD] bober100 Скачать
1 | 0


Последний раз редактировалось: bober100 (2021-12-04 21:02), всего редактировалось 2 раз(а)

28-11-2019 20:33  

Отключить всю рекламу на сайте

22-10-2021 06:47 Дюна Скачать торрент  

ура спасибоpb.wtf



24-10-2021 11:31 Дюна Скачать торрент  

какая же это муть pb.wtf



24-10-2021 15:45 Дюна Скачать торрент  

UKURENIY писал(а):

какая же это муть

100% поддерживаю pb.wtf



27-10-2021 09:00 Дюна Скачать торрент  

BackSMoney писал(а):

UKURENIY писал(а):

какая же это муть

100% поддерживаю

действительно не для неокрепших умов pb.wtf



29-10-2021 06:14 Дюна Скачать торрент  

фильм норм, в лучших традициях тех тем семидесятых... (аля звездные войны). Скажите по картинке кто шарит. Это пережатка так портит картинку, на темных сценах просто кошмар - переходы тонов и в целом серый -говносерый. Подумалось даже может 1080 скачать?pb.wtf



29-10-2021 16:54 Дюна Скачать торрент  

Фильм максимально близок к книге, за что режиссеру огромный респект. Но.. не знакомых с лором хотя бы в ближайшем приближении, собьет с толку куча непонятных терминов и тд.
Редкий случай, когда отсебятины минимум. Но опять же, это как warcraft- красиво, но нихрена ничего не понять, кроме как фанатам серииpb.wtf



09-11-2021 13:10 Дюна Скачать торрент  

Фильм очень зашел, прям то чего я и ожидал, 2.5 часа пролетели как 15 минут. Жаль только, что теперь вторую часть ждать долгоpb.wtf



19-11-2021 16:12 Дюна Скачать торрент  

Фильм огонь! Ждем 2 часть!pb.wtf



07-12-2021 08:37 Дюна Скачать торрент  

ниче так... ждемс продолжениеpb.wtf



    Дорогой пользователь! Огромная просьба, поблагодарите релизера, оцените раздачу и оставьте свои комментарий, если Вы скачали Дюна через торрент бесплатно!
    Комментировать посты могут только пользователи прошедшие не сложную регистрацию
    Показать сообщения:    

    Дюна через торрент
    Скачать бесплатно Дюна
    Дюна скачать торрент
    Дюна смотреть онлайн
    Cкачать фильм Дюна бесплатно
    Дюна скачать торрент в хорошем качестве
    Дюна смотреть онлайн бесплатно в хорошем качестве


    Вы не можете начинать темы
    Вы не можете отвечать на сообщения
    Вы не можете редактировать свои сообщения
    Вы не можете удалять свои сообщения
    Вы не можете голосовать в опросах
    Вы не можете прикреплять файлы к сообщениям
    Вы можете скачивать файлы