Присоединяйтесь к нам в Telegram!, здесь всегда актуальный адрес сайта, оперативная поддержка и многое другое!!

>

5.9

iTunes

7.4

iTunes

9.4

1 сезон

1

7.4

2 сезон

7.2

iTunes

7.3

1 сезон

13

6.1

iTunes

8.3

GOG

30

ULTIMATE

pack

9.9

Лицензия

ВАЖНО

ИГРА 18+

pack

7.3

RePack

MK11

7.7

RePack

jed

7.8

RePack

fifa19

8.5

RePack

RDR2

RePack

NEED FOR SPEED™ PAYBACK

5 сезон

9 сезон

Бесстыжие 9 сезон

Все сериалы

все сериалы на PB.wtf

RePack

FAR CRY 5

Anonymous, добрый вечер, мы катастрофически не успеваем собрать деньги на оплату серверов, помогите нам пожалуйста 5,10,15р., для нас важна любая помощь . В качестве благодарности мы отключим Вам всю рекламу на сайте (укажите свой ник в строку Ваше имя)!

×
  
Magnet ссылка

После. Глава 3 / After We Fell (Кастиль Лэндон) [2021, Драма, WEB-DL 1080p] DUB [СиПиАй Филмз / CPI Films] pb.wtf

После. Глава 3 через торрент pb.wtf

Раздают: 10 [ 37 KB/s ]
Размер: 4.78 GB | Добавлен: 1 мес. 9 д. назад | Торрент скачан:117 раз
Смотреть онлайн После. Глава 3 | Скачать    Ребята, помогите собрать деньги на оплату серверов!!!

23-10-2021 19:10 После. Глава 3 Скачать торрент  

После. Глава 3
After We Fell

Год выпуска: 2021
Страна: США, Болгария
Студия: CalMaple, Wattpad
Жанр: Драма
Продолжительность: 01:38:49
Перевод: Дублированный | СиПиАй Филмз / CPI Films
Субтитры: Aнглийские

Режиссер: Кастиль Лэндон

rating

В ролях: Хиро Файнс-Тиффин, Джозефина Лэнгфорд, Мира Сорвино, Ариэль Кеббел, Стивен Мойер, Картер Дженкинс, Ченс Пердомо, Киана Мадейра, Луиза Ломбард, Роб Эстес, Атанас Сребрев

[img]Описание[/img]: Тесса оказывается перед сложным выбором — начать карьеру мечты в крупном издательстве или переехать в Лондон вместе со своим возлюбленным Хардином. Казалось, героям суждено быть вместе всегда, но пройдет ли их страстная любовь проверку на прочность? Тайны прошлого вновь настигают молодых людей, которым придется понять, что они значат друг для друга на самом деле. «После. Глава 3» — третья часть мелодраматичной истории отношений притягательного бунтаря и пай-девочки.

Качество: WEB-DL 1080p
Формат: MKV

Видео: MPEG-4 AVC, 1920x872, 5841 Kbit/s, 23.976 fps
Аудио #01: 48 kHz, AC3, 5.1, 448 Kbps | Дублированный | RUS |
Аудио #02: 48 kHz, E-AC3, 5.1, 640 Kbps | Оригинал | ENG |
скриншот  скриншот  скриншот  скриншот  скриншот  

General
Unique ID : 190159900008499740447732141561768909092 (0x8F0F76EDB8154ECFF86BE43EF3A51924)
Complete name : E:VideoAfter.We.Fell.2021.AMZN.WEB-DL.1080p.seleZen.mkv
Format : Matroska
Format version : Version 4
File size : 4.78 GiB
Duration : 1 h 38 min
Overall bit rate : 6 931 kb/s
Movie name : After We Fell 2021 from seleZen
Encoded date : UTC 2021-10-22 07:59:27
Writing application : mkvmerge v59.0.0 ('Shining Star') 64-bit
Writing library : libebml v1.4.2 + libmatroska v1.6.4

Video
ID : 1
Format : AVC
Format/Info : Advanced Video Codec
Format profile : High@L4
Format settings : CABAC / 4 Ref Frames
Format settings, CABAC : Yes
Format settings, Reference frames : 4 frames
Codec ID : V_MPEG4/ISO/AVC
Duration : 1 h 38 min
Bit rate mode : Constant
Bit rate : 5 841 kb/s
Nominal bit rate : 10 000 kb/s
Width : 1 920 pixels
Height : 872 pixels
Display aspect ratio : 2.2:1
Frame rate mode : Constant
Frame rate : 23.976 (24000/1001) FPS
Color space : YUV
Chroma subsampling : 4:2:0
Bit depth : 8 bits
Scan type : Progressive
Bits/(Pixel*Frame) : 0.146
Stream size : 4.03 GiB (84%)
Language : English
Default : Yes
Forced : No
Color range : Limited
Color primaries : BT.709
Transfer characteristics : BT.709
Matrix coefficients : BT.709

Audio #1
ID : 2
Format : AC-3
Format/Info : Audio Coding 3
Commercial name : Dolby Digital
Codec ID : A_AC3
Duration : 1 h 38 min
Bit rate mode : Constant
Bit rate : 448 kb/s
Channel(s) : 6 channels
Channel layout : L R C LFE Ls Rs
Sampling rate : 48.0 kHz
Frame rate : 31.250 FPS (1536 SPF)
Compression mode : Lossy
Stream size : 317 MiB (6%)
Title : Dub
Language : Russian
Service kind : Complete Main
Default : Yes
Forced : Yes

Audio #2
ID : 3
Format : E-AC-3
Format/Info : Enhanced AC-3
Commercial name : Dolby Digital Plus
Codec ID : A_EAC3
Duration : 1 h 38 min
Bit rate mode : Constant
Bit rate : 640 kb/s
Channel(s) : 6 channels
Channel layout : L R C LFE Ls Rs
Sampling rate : 48.0 kHz
Frame rate : 31.250 FPS (1536 SPF)
Compression mode : Lossy
Stream size : 452 MiB (9%)
Title : Original
Language : English
Service kind : Complete Main
Default : No
Forced : No

Text
ID : 4
Format : UTF-8
Codec ID : S_TEXT/UTF8
Codec ID/Info : UTF-8 Plain Text
Duration : 1 h 32 min
Bit rate : 50 b/s
Count of elements : 1100
Stream size : 34.0 KiB (0%)
Language : English
Default : No
Forced : No

pb.wtf



Скачать После. Глава 3 через торрент https://i116.fastpic.org/big/2021/1023/8a/c96917961c1898f92cc420b0a4c51a8a.jpg Скачать, смотреть онлайн После. Глава 3 бесплантно в хорошем качестве Описание[/img]: Тесса оказывается перед сложным выбором — начать карьеру мечты в крупном издательстве или переехать в Лондон вместе со ... 10 10 5
Торрент: Зарегистрирован [2021-10-23 19:10] · скачан: 117 раз
Статус: √ проверено
Размер: 4.78 GB
Как cкачать? Как скачать После. Глава 3 через торрент | UTorrent

% Раздел Тема Автор DL S | L
Фильмы 2021 [DVDrip, WEB-DLRip, HDrip] (DUB, MVO) [ 747 MB ] После. Глава 3 / After We Fell [2021 WEB-DLRip] DUB [СиПиАй Филмз / CPI Films] bober100 Скачать
2 | 0
Фильмы 2021 [DVDrip, WEB-DLRip, HDrip] (DUB, MVO) [ 1.46 GB ] После. Глава 3 / After We Fell [2021 WEB-DLRip] DUB [СиПиАй Филмз / CPI Films] bober100 Скачать
6 | 0

28-11-2019 20:33  

Отключить всю рекламу на сайте

24-10-2021 06:51 После. Глава 3 Скачать торрент  

это порно?pb.wtf



    Дорогой пользователь! Огромная просьба, поблагодарите релизера, оцените раздачу и оставьте свои комментарий, если Вы скачали После. Глава 3 через торрент бесплатно!
    Комментировать посты могут только пользователи прошедшие не сложную регистрацию
    Показать сообщения:    

    После. Глава 3 через торрент
    Скачать бесплатно После. Глава 3
    После. Глава 3 скачать торрент
    После. Глава 3 смотреть онлайн
    Cкачать фильм После. Глава 3 бесплатно
    После. Глава 3 скачать торрент в хорошем качестве
    После. Глава 3 смотреть онлайн бесплатно в хорошем качестве


    Вы не можете начинать темы
    Вы не можете отвечать на сообщения
    Вы не можете редактировать свои сообщения
    Вы не можете удалять свои сообщения
    Вы не можете голосовать в опросах
    Вы не можете прикреплять файлы к сообщениям
    Вы можете скачивать файлы