Присоединяйтесь к нам в Telegram!, здесь всегда актуальный адрес сайта, оперативная поддержка и многое другое!!

>

5.9

iTunes

7.4

iTunes

9.4

1 сезон

1

7.4

2 сезон

7.2

iTunes

7.3

1 сезон

13

6.1

iTunes

8.3

GOG

30

ULTIMATE

pack

9.9

Лицензия

ВАЖНО

ИГРА 18+

pack

7.3

RePack

MK11

7.7

RePack

jed

7.8

RePack

fifa19

8.5

RePack

RDR2

RePack

NEED FOR SPEED™ PAYBACK

5 сезон

9 сезон

Бесстыжие 9 сезон

Все сериалы

все сериалы на PB.wtf

RePack

FAR CRY 5

Anonymous, добрый вечер, мы катастрофически не успеваем собрать деньги на оплату серверов, помогите нам пожалуйста 5,10,15р., для нас важна любая помощь . В качестве благодарности мы отключим Вам всю рекламу на сайте (укажите свой ник в строку Ваше имя)!

×
  
Magnet ссылка

Тайна сестёр Макалузо / Le sorelle Macaluso (Эмма Данте) [2020, Драма, HDRip-AVC] MVO [iTunes] от ExKinoRay pb.wtf

Тайна сестёр Макалузо через торрент pb.wtf

Раздают: 1 [ 0 KB/s ]
Размер: 1.4 GB | Добавлен: 1 мес. 9 д. назад | Торрент скачан:31 раз
Смотреть онлайн Тайна сестёр Макалузо | Скачать    Ребята, помогите собрать деньги на оплату серверов!!!

23-10-2021 19:56 Тайна сестёр Макалузо Скачать торрент  


Тайна сестёр Макалузо / Le sorelle Macaluso
Информация о фильме:
Название: Тайна сестёр Макалузо
Оригинальное название: Le sorelle Macaluso
Год выхода: 2020
Жанр: Драма
Режиссер: Эмма Данте

В ролях: Алисса Мария Орландо, Сусанна Пираино, Анита Помарио, Элеонора Де Лука, Донателла Финокьяро, Виола Пусатери, Серена Бароне, Симона Малато, Лаура Джордани, Мария Розария Алати

Описание: Пятеро сестёр — от малышки Антонеллы до восемнадцатилетней Марии — проживают в Палермо без родителей, зарабатывая на жизнь разведением в доме голубей, которых они отдают в аренду на праздничные церемонии. Жизнь девочек беззаботна и не отличается от времяпрепровождения других подростков. Однажды, как обычно, они отправляются на пляж, где происходит несчастный случай, уносящий жизнь одной из них. Смерть переворачивает отношения между девочками, спустя десятилетия отзываясь в сердцах уже взрослых женщин непримиримой болью утраты.



Страна: Италия
Студия: Rosamont, Minimum Fax Media, Rai Cinema
Продолжительность: 01:28:56
Перевод: Профессиональный (многоголосый, закадровый) - iTunes



Информация о файле:
Кодек: AVC
Формат: MKV
Качество: HDRip-AVC
Видео: MPEG-4 AVC, 1024x552, 24.000 fps, 1870 kbps
Аудио RU: AC3, 6 ch, 48 kHz, 384 kbps
Субтитры: Русские (Forced, full)

x264 info: frame I:685 Avg QP:15.24 size: 61862
x264 info: frame P:29364 Avg QP:19.63 size: 19991
x264 info: frame B:98013 Avg QP:20.80 size: 6273
x264 info: consecutive B-frames: 2.9% 4.6% 9.7% 19.2% 13.9% 26.9% 10.2% 9.1% 1.3% 0.7% 1.6%
General
Unique ID : 254221576911353665466888712582762111882 (0xBF414B749FC2298E8271F663459CA38A)
Complete name : D:uTorrentРипы wolf1245Le sorelle Macaluso.2020.MVO.iTunes.HDRip-AVC.[wolf1245.ExKinoRay].mkv
Format : Matroska
Format version : Version 4
File size : 1.40 GiB
Duration : 1 h 28 min
Overall bit rate : 2 251 kb/s
Movie name : Le sorelle Macaluso.2020.MVO.iTunes.HDRip-AVC.[wolf1245.ExKinoRay]
Encoded date : UTC 2021-10-23 19:41:18
Writing application : mkvmerge v62.0.0 ('Apollo') 64-bit
Writing library : libebml v1.4.2 + libmatroska v1.6.4
Video
ID : 1
Format : AVC
Format/Info : Advanced Video Codec
Format profile : High@L4.1
Format settings : CABAC / 12 Ref Frames
Format settings, CABAC : Yes
Format settings, Reference frames : 12 frames
Codec ID : V_MPEG4/ISO/AVC
Duration : 1 h 28 min
Bit rate : 1 870 kb/s
Width : 1 024 pixels
Height : 552 pixels
Display aspect ratio : 1.85:1
Frame rate mode : Constant
Frame rate : 24.000 FPS
Color space : YUV
Chroma subsampling : 4:2:0
Bit depth : 8 bits
Scan type : Progressive
Bits/(Pixel*Frame) : 0.138
Stream size : 1.16 GiB (83%)
Title : -=[wolf1245.ExKinoRay]=-
Writing library : x264 core 161 r3020 d198931
Encoding settings : cabac=1 / ref=12 / deblock=1:-3:-3 / analyse=0x3:0x133 / me=umh / subme=10 / psy=1 / psy_rd=1.02:0.05 / mixed_ref=1 / me_range=48 / chroma_me=1 / trellis=2 / 8x8dct=1 / cqm=0 / deadzone=21,11 / fast_pskip=1 / chroma_qp_offset=-3 / threads=10 / lookahead_threads=2 / sliced_threads=0 / nr=0 / decimate=0 / interlaced=0 / bluray_compat=0 / constrained_intra=0 / bframes=10 / b_pyramid=2 / b_adapt=2 / b_bias=0 / direct=3 / weightb=1 / open_gop=0 / weightp=2 / keyint=240 / keyint_min=24 / scenecut=40 / intra_refresh=0 / rc_lookahead=60 / rc=2pass / mbtree=0 / bitrate=1870 / ratetol=1.0 / qcomp=0.60 / qpmin=0 / qpmax=69 / qpstep=4 / cplxblur=20.0 / qblur=0.5 / vbv_maxrate=50000 / vbv_bufsize=62500 / nal_hrd=none / filler=0 / ip_ratio=1.40 / pb_ratio=1.30 / aq=3:0.80
Language : Italian
Default : Yes
Forced : No
Color range : Limited
Color primaries : BT.709
Transfer characteristics : BT.709
Matrix coefficients : BT.709
Audio
ID : 2
Format : AC-3
Format/Info : Audio Coding 3
Commercial name : Dolby Digital
Codec ID : A_AC3
Duration : 1 h 28 min
Bit rate mode : Constant
Bit rate : 384 kb/s
Channel(s) : 6 channels
Channel layout : L R C LFE Ls Rs
Sampling rate : 48.0 kHz
Frame rate : 31.250 FPS (1536 SPF)
Compression mode : Lossy
Stream size : 244 MiB (17%)
Title : MVO (iTunes)
Language : Russian
Service kind : Complete Main
Default : Yes
Forced : No
Text #1
ID : 3
Format : UTF-8
Codec ID : S_TEXT/UTF8
Codec ID/Info : UTF-8 Plain Text
Duration : 1 h 23 min
Bit rate : 2 b/s
Count of elements : 21
Stream size : 1.54 KiB (0%)
Title : Forced
Language : Russian
Default : Yes
Forced : Yes
Text #2
ID : 4
Format : UTF-8
Codec ID : S_TEXT/UTF8
Codec ID/Info : UTF-8 Plain Text
Duration : 1 h 24 min
Bit rate : 45 b/s
Count of elements : 602
Stream size : 27.9 KiB (0%)
Title : Full | iTunes
Language : Russian
Default : No
Forced : No
Релиз от:
Автор релиза:
pb.wtf



Скачать Тайна сестёр Макалузо через торрент https://i116.fastpic.org/big/2021/1023/c3/733141d91ca938288750e4248b593dc3.jpg Скачать, смотреть онлайн Тайна сестёр Макалузо бесплантно в хорошем качестве Описание: Пятеро сестёр — от малышки Антонеллы до восемнадцатилетней Марии — проживают в Палермо без родителей, зарабатывая на жизнь ... 10 10 1
Торрент: Зарегистрирован [2021-10-23 19:56] · скачан: 31 раз
Статус: √ проверено
Размер: 1.4 GB
Как cкачать? Как скачать Тайна сестёр Макалузо через торрент | UTorrent

28-11-2019 20:33  

Отключить всю рекламу на сайте

    Дорогой пользователь! Огромная просьба, поблагодарите релизера, оцените раздачу и оставьте свои комментарий, если Вы скачали Тайна сестёр Макалузо через торрент бесплатно!
    Комментировать посты могут только пользователи прошедшие не сложную регистрацию
    Показать сообщения:    

    Тайна сестёр Макалузо через торрент
    Скачать бесплатно Тайна сестёр Макалузо
    Тайна сестёр Макалузо скачать торрент
    Тайна сестёр Макалузо смотреть онлайн
    Cкачать фильм Тайна сестёр Макалузо бесплатно
    Тайна сестёр Макалузо скачать торрент в хорошем качестве
    Тайна сестёр Макалузо смотреть онлайн бесплатно в хорошем качестве


    Вы не можете начинать темы
    Вы не можете отвечать на сообщения
    Вы не можете редактировать свои сообщения
    Вы не можете удалять свои сообщения
    Вы не можете голосовать в опросах
    Вы не можете прикреплять файлы к сообщениям
    Вы можете скачивать файлы