Присоединяйтесь к нам в Telegram!, здесь всегда актуальный адрес сайта, оперативная поддержка и многое другое!!

>

5.9

iTunes

7.4

iTunes

9.4

1 сезон

1

7.4

2 сезон

7.2

iTunes

7.3

1 сезон

13

6.1

iTunes

8.3

GOG

30

ULTIMATE

pack

9.9

Лицензия

ВАЖНО

ИГРА 18+

pack

7.3

RePack

MK11

7.7

RePack

jed

7.8

RePack

fifa19

8.5

RePack

RDR2

RePack

NEED FOR SPEED™ PAYBACK

5 сезон

9 сезон

Бесстыжие 9 сезон

Все сериалы

все сериалы на PB.wtf

RePack

FAR CRY 5

Anonymous, добрый вечер, мы катастрофически не успеваем собрать деньги на оплату серверов, помогите нам пожалуйста 5,10,15р., для нас важна любая помощь . В качестве благодарности мы отключим Вам всю рекламу на сайте (укажите свой ник в строку Ваше имя)!

×
  
Magnet ссылка

UFC Fight Night 196: Costa vs. Vettori / Prelims & Main Card [23.10.2021, MMA, RU, UFC ТВ HD, IPTVRip 1080p] pb.wtf

UFC Fight Night 196: Costa vs. Vettori через торрент pb.wtf

Размер: 8.97 GB | Добавлен: 1 мес. 9 д. назад | Торрент скачан:21 раз
Смотреть онлайн UFC Fight Night 196: Costa vs. Vettori | Скачать    Ребята, помогите собрать деньги на оплату серверов!!!

24-10-2021 03:10 UFC Fight Night 196: Costa vs. Vettori Скачать торрент  

UFC Fight Night 196: Costa vs. Vettori / Prelims & Main Card
Год выпуска: 23.10.2021
Вид спорта: MMA
Продолжительность: 05:00:27
Язык комментариев: Русский
Комментаторы: Олег Володин, Давид Багдасарян
Выпущено: Россия, UFC ТВ HD

Описание: 23 октября в Лас-Вегасе (Невада, США) на фирменной арене «UFC APEX» состоялся турнир UFC Fight Night 196. Главным событием которого стал бой между бывшими претендентами на титул в среднем весе Пауло Коста и Марвином Веттори. Оба бойца в своих крайних поединках предприняли попытки стать чемпионами дивизиона в бою с Исраэлем Адесанья и оба потерпели сокрушительное фиаско. Если Веттори смог дойти до единогласного поражения, то Коста был финиширован техническим нокаутом уже во втором раунде, после чего еще и был прилюдно унижен.Теоретически: победа в предстоящем поединке должна вернуть одного из участников в титульную гонку, на деле: пока чемпионом остается Адесанья – у обоих нет никах шансов на золото весовой.

Автор релиза:
Реклама: Отсутствует

Качество: IPTVRip 1080p
Формат: MKV

Видео: MPEG-4 AVC, 1920x1080, ~ 4100 Кбит/с, 25.000 FPS
Аудио: AC3, 2 ch, 192 Кбит/с, 48.0 kHz
Предварительный кард:

Наилегчайший вес: Джеффри Молина - Дэниел Ласерда (2 раунд)
Лёгкий вес: Кама Ворси - Джай Герберт
Средний вес: Джейми Пикетт - Лауреано Старополи
Женщины, минимальный вес: Табата Риччи - Мариа Оливейра
Лёгкий вес: Мэйсон Джонс - Дэвид Онама
Средний вес: Юн Ёнг Парк - Грегори Родригес

Основной кард:

Полутяжёлый вес: Николае Негумереану - Исаак Виллануева
Полусредний вес: Франсиско Триналдо - Дуайт Грант
Полулёгкий вес: Алекс Касэрес - Сеунгву Чой
Женщины, легчайший вес: Джессика-Роуз Кларк - Джозелин Эдвардс
Лёгкий вес: Грант Доусон - Рик Гленн
Полутяжёлый вес: Пауло Коста - Марвин Веттори
скриншот  скриншот  скриншот  скриншот  
Общее
Уникальный идентификатор : 332764010875016618016298188254193449211 (0xFA58046D805E9BDB5D4EB04E93E4F8FB)
Полное имя : D:\UFC.(23.10.2021).1080p.7turza\01.UFC.Predvaritelnyj.Kard.7turza.mkv
Формат : Matroska
Версия формата : Version 4
Размер файла : 3,42 Гбайт
Продолжительность : 1 ч. 54 м.
Режим общего битрейта : Переменный
Общий поток : 4275 Кбит/сек
Название фильма : 01.UFC.Predvaritelnyj.Kard.7turza
Дата кодирования : UTC 2021-10-23 20:26:46
Программа кодирования : mkvmerge v62.0.0 ('Apollo') 64-bit
Библиотека кодирования : libebml v1.4.2 + libmatroska v1.6.4
Attachments : poster.jpg

Видео
Идентификатор : 1
Формат : AVC
Формат/Информация : Advanced Video Codec
Профиль формата : High@L4
Настройки формата : CABAC / 4 Ref Frames
Параметр CABAC формата : Да
Параметр RefFrames формата : 4 кадра
Идентификатор кодека : V_MPEG4/ISO/AVC
Продолжительность : 1 ч. 54 м.
Вид битрейта : Переменный
Битрейт : 4081 Кбит/сек
Максимальный битрейт : 4500 Кбит/сек
Ширина : 1920 пикселей
Высота : 1080 пикселей
Соотношение сторон : 16:9
Режим частоты кадров : Постоянный
Частота кадров : 25,000 кадров/сек
Цветовое пространство : YUV
Субдискретизация насыщенности : 4:2:0
Битовая глубина : 8 бит
Тип развёртки : Прогрессивная
Бит/(Пиксели*Кадры) : 0.079
Размер потока : 3,27 Гбайт (95%)
Библиотека кодирования : x264 core 160 r3000
Настройки программы : cabac=1 / ref=4 / deblock=1:0:0 / analyse=0x3:0x113 / me=hex / subme=4 / psy=1 / psy_rd=1.00:0.00 / mixed_ref=0 / me_range=16 / chroma_me=1 / trellis=1 / 8x8dct=1 / cqm=0 / deadzone=21,11 / fast_pskip=1 / chroma_qp_offset=0 / threads=4 / lookahead_threads=1 / sliced_threads=0 / nr=0 / decimate=1 / interlaced=0 / bluray_compat=0 / constrained_intra=0 / bframes=3 / b_pyramid=2 / b_adapt=1 / b_bias=0 / direct=1 / weightb=1 / open_gop=0 / weightp=1 / keyint=25 / keyint_min=2 / scenecut=0 / intra_refresh=0 / rc_lookahead=20 / rc=abr / mbtree=1 / bitrate=1842 / ratetol=1.0 / qcomp=0.60 / qpmin=0 / qpmax=69 / qpstep=4 / vbv_maxrate=3684 / vbv_bufsize=6750 / nal_hrd=none / filler=0 / ip_ratio=1.40 / aq=1:1.00
Default : Да
Forced : Нет
Цветовой диапазон : Limited
Основные цвета : BT.709
Характеристики трансфера : BT.709
Коэффициенты матрицы : BT.709

Аудио
Идентификатор : 2
Формат : AC-3
Формат/Информация : Audio Coding 3
Коммерческое название : Dolby Digital
Идентификатор кодека : A_AC3
Продолжительность : 1 ч. 54 м.
Вид битрейта : Постоянный
Битрейт : 192 Кбит/сек
Каналы : 2 канала
ChannelLayout : L R
Частота : 48,0 КГц
Частота кадров : 31,250 кадров/сек (1536 SPF)
Битовая глубина : 32 бит
Метод сжатия : С потерями
Размер потока : 157 Мбайт (4%)
Язык : Russian
ServiceKind/String : Complete Main
Default : Да
Forced : Нет
pb.wtf



Скачать UFC Fight Night 196: Costa vs. Vettori через торрент https://a.radikal.ru/a22/2110/76/16a86a28e5bb.jpg Скачать, смотреть онлайн UFC Fight Night 196: Costa vs. Vettori бесплантно в хорошем качестве Описание: 23 октября в Лас-Вегасе (Невада, США) на фирменной арене «UFC APEX» состоялся турнир UFC Fight Night 19 Главным событием ... 10 10 6
Info! Золотая раздача, скачанное не засчитывается.
Торрент: Зарегистрирован [2021-10-24 03:10] · скачан: 21 раз
Статус: √ проверено
Размер: 8.97 GB
Как cкачать? Как скачать UFC Fight Night 196: Costa vs. Vettori через торрент | UTorrent



Последний раз редактировалось: bober100 (2021-11-07 16:22), всего редактировалось 1 раз

28-11-2019 20:33  

Отключить всю рекламу на сайте

01-11-2021 05:20 UFC Fight Night 196: Costa vs. Vettori Скачать торрент  

здравствуйте, выложите последний с петрухой пожалуйста.pb.wtf



07-11-2021 05:09 UFC Fight Night 196: Costa vs. Vettori Скачать торрент  

bober100, доброго, а 267 и сегодняшний выложите? пожалуйстаpb.wtf



    Дорогой пользователь! Огромная просьба, поблагодарите релизера, оцените раздачу и оставьте свои комментарий, если Вы скачали UFC Fight Night 196: Costa vs. Vettori через торрент бесплатно!
    Комментировать посты могут только пользователи прошедшие не сложную регистрацию
    Показать сообщения:    

    UFC Fight Night 196: Costa vs. Vettori через торрент
    Скачать бесплатно UFC Fight Night 196: Costa vs. Vettori
    UFC Fight Night 196: Costa vs. Vettori скачать торрент
    UFC Fight Night 196: Costa vs. Vettori смотреть онлайн
    Cкачать фильм UFC Fight Night 196: Costa vs. Vettori бесплатно
    UFC Fight Night 196: Costa vs. Vettori скачать торрент в хорошем качестве
    UFC Fight Night 196: Costa vs. Vettori смотреть онлайн бесплатно в хорошем качестве


    Вы не можете начинать темы
    Вы не можете отвечать на сообщения
    Вы не можете редактировать свои сообщения
    Вы не можете удалять свои сообщения
    Вы не можете голосовать в опросах
    Вы не можете прикреплять файлы к сообщениям
    Вы можете скачивать файлы