Присоединяйтесь к нам в Telegram!, здесь всегда актуальный адрес сайта, оперативная поддержка и многое другое!!

>

5.9

iTunes

7.4

iTunes

9.4

1 сезон

1

7.4

2 сезон

7.2

iTunes

7.3

1 сезон

13

6.1

iTunes

8.3

GOG

30

ULTIMATE

pack

9.9

Лицензия

ВАЖНО

ИГРА 18+

pack

7.3

RePack

MK11

7.7

RePack

jed

7.8

RePack

fifa19

8.5

RePack

RDR2

RePack

NEED FOR SPEED™ PAYBACK

5 сезон

9 сезон

Бесстыжие 9 сезон

Все сериалы

все сериалы на PB.wtf

RePack

FAR CRY 5

Anonymous, добрый вечер, мы катастрофически не успеваем собрать деньги на оплату серверов, помогите нам пожалуйста 5,10,15р., для нас важна любая помощь . В качестве благодарности мы отключим Вам всю рекламу на сайте (укажите свой ник в строку Ваше имя)!

×
  
Magnet ссылка

Неидеальное убийство / Частная жизнь современной женщины / The Private Life of a Modern Woman (Джеймс Тобак) [2017, драма, WEB-DLRip-AVC] DUB [iTunes] от ExKinoRay pb.wtf

Неидеальное убийство через торрент pb.wtf

Раздают: 2 [ 0 KB/s ]
Размер: 1.45 GB | Добавлен: 1 мес. 9 д. назад | Торрент скачан:56 раз
Смотреть онлайн Неидеальное убийство | Скачать    Ребята, помогите собрать деньги на оплату серверов!!!

24-10-2021 07:04 Неидеальное убийство Скачать торрент  


Неидеальное убийство / Частная жизнь современной женщины / The Private Life of a Modern Woman

Информация о фильме:
Название: Неидеальное убийство / Частная жизнь современной женщины
Оригинальное название: The Private Life of a Modern Woman
Год выхода: 2017
Жанр: Драма
Режиссер: Джеймс Тобак

В ролях: Сиенна Миллер, Алек Болдуин, Чарльз Гродин, Коллин Кэмп, Джон Баффало Мэйлер, Ник Мэтьюз, Стивен Прескод, Оливер «Пауэр» Грант, Карл Икан, Джеймс Тобак

Описание: В роскошных нью-йоркских апартаментах Веру Локман, успешную актрису, мучает кошмар. Во сне она стреляет в своего наркодилера Сэла, по совместительству бывшего бойфренда, и убивает его. Проснувшись, Вера находит в своём дневнике запись о том, что накануне действительно произошло убийство, и тело Сэла находится в чемодане в её гостиной.



Страна: США
Студия: BondIt Media Capital, Private Life Productions
Продолжительность: 01:11:10
Перевод: Дублированный - iTunes



Информация о файле:
Кодек: AVC
Формат: MKV
Качество: WEB-DLRip-AVC
Видео: MPEG-4 AVC, 1024x554, 23.976 fps, 2150 kbps
Аудио RU: AC3, 6 ch, 48 kHz, 384 kbps
Аудио EN: AC3, 6 ch, 48 kHz, 384 kbps

x264 info: frame I:711 Avg QP:15.22 size: 84133
x264 info: frame P:25711 Avg QP:19.27 size: 24454
x264 info: frame B:75958 Avg QP:21.41 size: 6039
x264 info: consecutive B-frames: 1.7% 3.1% 5.5% 69.3% 6.3% 9.6% 1.8% 0.9% 0.2% 0.3% 1.4%
General
Unique ID : 54565746415943008847785462025514949342 (0x290CFB01C9B0E9988AE3F943673C9ADE)
Complete name : D:uTorrentРипы wolf1245The Private Life of a Modern Woman2017.DUB.iTunes.WEB-DLRip-AVC.[wolf1245.ExKinoRay].mkv
Format : Matroska
Format version : Version 4
File size : 1.45 GiB
Duration : 1 h 11 min
Overall bit rate : 2 919 kb/s
Movie name : The Private Life of a Modern Woman2017.DUB.iTunes.WEB-DLRip-AVC.[wolf1245.ExKinoRay]
Encoded date : UTC 2021-10-24 06:53:40
Writing application : mkvmerge v62.0.0 ('Apollo') 64-bit
Writing library : libebml v1.4.2 + libmatroska v1.6.4
Video
ID : 1
Format : AVC
Format/Info : Advanced Video Codec
Format profile : High@L4.1
Format settings : CABAC / 12 Ref Frames
Format settings, CABAC : Yes
Format settings, Reference frames : 12 frames
Codec ID : V_MPEG4/ISO/AVC
Duration : 1 h 11 min
Bit rate : 2 150 kb/s
Width : 1 024 pixels
Height : 554 pixels
Display aspect ratio : 1.85:1
Frame rate mode : Constant
Frame rate : 23.976 (24000/1001) FPS
Color space : YUV
Chroma subsampling : 4:2:0
Bit depth : 8 bits
Scan type : Progressive
Bits/(Pixel*Frame) : 0.158
Stream size : 1.07 GiB (74%)
Title : -=[wolf1245.ExKinoRay]=-
Writing library : x264 core 161 r3020 d198931
Encoding settings : cabac=1 / ref=12 / deblock=1:-2:-2 / analyse=0x3:0x133 / me=umh / subme=10 / psy=1 / psy_rd=1.02:0.05 / mixed_ref=1 / me_range=48 / chroma_me=1 / trellis=2 / 8x8dct=1 / cqm=0 / deadzone=21,11 / fast_pskip=1 / chroma_qp_offset=-3 / threads=10 / lookahead_threads=2 / sliced_threads=0 / nr=0 / decimate=0 / interlaced=0 / bluray_compat=0 / constrained_intra=0 / bframes=10 / b_pyramid=2 / b_adapt=2 / b_bias=0 / direct=3 / weightb=1 / open_gop=0 / weightp=2 / keyint=240 / keyint_min=24 / scenecut=40 / intra_refresh=0 / rc_lookahead=60 / rc=2pass / mbtree=0 / bitrate=2150 / ratetol=1.0 / qcomp=0.60 / qpmin=0 / qpmax=69 / qpstep=4 / cplxblur=20.0 / qblur=0.5 / vbv_maxrate=50000 / vbv_bufsize=62500 / nal_hrd=none / filler=0 / ip_ratio=1.40 / pb_ratio=1.30 / aq=3:0.80
Language : English
Default : Yes
Forced : No
Color range : Limited
Color primaries : BT.709
Transfer characteristics : BT.709
Matrix coefficients : BT.709
Audio #1
ID : 2
Format : AC-3
Format/Info : Audio Coding 3
Commercial name : Dolby Digital
Codec ID : A_AC3
Duration : 1 h 11 min
Bit rate mode : Constant
Bit rate : 384 kb/s
Channel(s) : 6 channels
Channel layout : L R C LFE Ls Rs
Sampling rate : 48.0 kHz
Frame rate : 31.250 FPS (1536 SPF)
Compression mode : Lossy
Stream size : 195 MiB (13%)
Title : Dub (iTunes)
Language : Russian
Service kind : Complete Main
Default : Yes
Forced : No
Audio #2
ID : 3
Format : AC-3
Format/Info : Audio Coding 3
Commercial name : Dolby Digital
Codec ID : A_AC3
Duration : 1 h 11 min
Bit rate mode : Constant
Bit rate : 384 kb/s
Channel(s) : 6 channels
Channel layout : L R C LFE Ls Rs
Sampling rate : 48.0 kHz
Frame rate : 31.250 FPS (1536 SPF)
Compression mode : Lossy
Stream size : 195 MiB (13%)
Title : Original
Language : English
Service kind : Complete Main
Default : No
Forced : No
Menu
00:00:00.000 : :Chapter 01
00:08:29.000 : :Chapter 02
00:23:11.000 : :Chapter 03
00:32:14.000 : :Chapter 04
00:41:34.000 : :Chapter 05
00:53:21.000 : :Chapter 06
01:04:12.000 : :Chapter 07
Релиз от:
Автор релиза:
pb.wtf



Скачать Неидеальное убийство через торрент https://i116.fastpic.org/big/2021/1024/73/5edb35722d288778878d9ba0e9a19573.jpg Скачать, смотреть онлайн Неидеальное убийство бесплантно в хорошем качестве Описание: В роскошных нью-йоркских апартаментах Веру Локман, успешную актрису, мучает кошмар. Во сне она стреляет в своего наркодилера ... 10 10 2
Торрент: Зарегистрирован [2021-10-24 07:04] · скачан: 56 раз
Статус: √ проверено
Размер: 1.45 GB
Как cкачать? Как скачать Неидеальное убийство через торрент | UTorrent

28-11-2019 20:33  

Отключить всю рекламу на сайте

    Дорогой пользователь! Огромная просьба, поблагодарите релизера, оцените раздачу и оставьте свои комментарий, если Вы скачали Неидеальное убийство через торрент бесплатно!
    Комментировать посты могут только пользователи прошедшие не сложную регистрацию
    Показать сообщения:    

    Неидеальное убийство через торрент
    Скачать бесплатно Неидеальное убийство
    Неидеальное убийство скачать торрент
    Неидеальное убийство смотреть онлайн
    Cкачать фильм Неидеальное убийство бесплатно
    Неидеальное убийство скачать торрент в хорошем качестве
    Неидеальное убийство смотреть онлайн бесплатно в хорошем качестве


    Вы не можете начинать темы
    Вы не можете отвечать на сообщения
    Вы не можете редактировать свои сообщения
    Вы не можете удалять свои сообщения
    Вы не можете голосовать в опросах
    Вы не можете прикреплять файлы к сообщениям
    Вы можете скачивать файлы