Присоединяйтесь к нам в Telegram!, здесь всегда актуальный адрес сайта, оперативная поддержка и многое другое!!

>

5.9

iTunes

7.4

iTunes

9.4

1 сезон

1

7.4

2 сезон

7.2

iTunes

7.3

1 сезон

13

6.1

iTunes

8.3

GOG

30

ULTIMATE

pack

9.9

Лицензия

ВАЖНО

ИГРА 18+

pack

7.3

RePack

MK11

7.7

RePack

jed

7.8

RePack

fifa19

8.5

RePack

RDR2

RePack

NEED FOR SPEED™ PAYBACK

5 сезон

9 сезон

Бесстыжие 9 сезон

Все сериалы

все сериалы на PB.wtf

RePack

FAR CRY 5

Anonymous, добрый вечер, мы катастрофически не успеваем собрать деньги на оплату серверов, помогите нам пожалуйста 5,10,15р., для нас важна любая помощь . В качестве благодарности мы отключим Вам всю рекламу на сайте (укажите свой ник в строку Ваше имя)!

×
  
Magnet ссылка

Титан / Titane ( Жюлия Дюкурно) [2021, Фантастика, Триллер, Драма, Криминал, BDRip-AVC] DUB [iTunes] от ExKinoRay pb.wtf

Титан через торрент pb.wtf

Раздают: 6 [ 9 KB/s ]
Размер: 1.91 GB | Добавлен: 12 д. назад | Торрент скачан:45 раз
Смотреть онлайн Титан | Скачать    Ребята, помогите собрать деньги на оплату серверов!!!

24-10-2021 16:14 Титан Скачать торрент  


Титан / Titane
Информация о фильме:
Название: Титан
Оригинальное название: Titane
Год выхода: 2021
Жанр: Фантастика, Триллер, Драма, Криминал
Режиссер: Жюлия Дюкурно

В ролях: Венсан Линдон, Агат Руссель, Геранс Марилье, Лаис Саламе, Мара Сисси, Марин Джудас, Дионг-Кеба Таку, Мириам Акеддиу, Бертран Бонелло, Селин Каррер

Описание: После автоаварии, в которую Алексиа попала в детстве, в голове у неё титановая пластина. 15 лет спустя она работает стриптизёршей, а когда беременеет совершенно невероятным образом, это провоцирует у девушки всплеск неконтролируемой агрессии.



Страна: Франция, Бельгия
Студия: arte France Cinéma, BeTV, Canal+ [fr]
Продолжительность: 01:47:58
Перевод: Дублированный - iTunes



Информация о файле:
Кодек: AVC
Формат: MKV
Качество: BDRip-AVC | Titane.2021.BDREMUX.1080p.seleZen
Видео: MPEG-4 AVC, 1024x428, 24,000 fps, 2150 kbps
Аудио RU: AC3, 6 ch, 48 kHz, 384 kbps
Субтитры: Русские (Full), английские

x264 info: frame I:978 Avg QP:10.83 size: 49569
x264 info: frame P:36377 Avg QP:12.58 size: 23486
x264 info: frame B:118140 Avg QP:14.22 size: 6961
x264 info: consecutive B-frames: 2.6% 3.3% 9.3% 31.1% 17.1% 20.5% 7.1% 5.0% 1.6% 1.1% 1.2%
General
Unique ID : 249568644035473054187234614416278286915 (0xBBC12C272D7B1E1B494202F4FA3FF243)
Complete name : D:uTorrentРипы wolf1245Titane.2021.DUB.iTunes.BDRip-AVC..[wolf1245.ExKinoRay].mkv
Format : Matroska
Format version : Version 4
File size : 1.91 GiB
Duration : 1 h 47 min
Overall bit rate : 2 532 kb/s
Movie name : Titane.2021.DUB.iTunes.BDRip-AVC..[wolf1245.ExKinoRay]
Encoded date : UTC 2021-11-20 09:46:17
Writing application : mkvmerge v63.0.0 ('Everything') 64-bit
Writing library : libebml v1.4.2 + libmatroska v1.6.4
Video
ID : 1
Format : AVC
Format/Info : Advanced Video Codec
Format profile : High@L4.1
Format settings : CABAC / 12 Ref Frames
Format settings, CABAC : Yes
Format settings, Reference frames : 12 frames
Codec ID : V_MPEG4/ISO/AVC
Duration : 1 h 47 min
Bit rate : 2 150 kb/s
Width : 1 024 pixels
Height : 428 pixels
Display aspect ratio : 2.40:1
Frame rate mode : Constant
Frame rate : 24.000 FPS
Color space : YUV
Chroma subsampling : 4:2:0
Bit depth : 8 bits
Scan type : Progressive
Bits/(Pixel*Frame) : 0.204
Stream size : 1.62 GiB (85%)
Title : -=[wolf1245.ExKinoRay]=-
Writing library : x264 core 163 r3060 5db6aa6
Encoding settings : cabac=1 / ref=12 / deblock=1:-3:-3 / analyse=0x3:0x133 / me=umh / subme=11 / psy=1 / psy_rd=1.02:0.05 / mixed_ref=1 / me_range=48 / chroma_me=1 / trellis=2 / 8x8dct=1 / cqm=0 / deadzone=21,11 / fast_pskip=1 / chroma_qp_offset=-3 / threads=10 / lookahead_threads=2 / sliced_threads=0 / nr=0 / decimate=0 / interlaced=0 / bluray_compat=0 / constrained_intra=0 / bframes=10 / b_pyramid=2 / b_adapt=2 / b_bias=0 / direct=3 / weightb=1 / open_gop=0 / weightp=2 / keyint=240 / keyint_min=24 / scenecut=40 / intra_refresh=0 / rc_lookahead=60 / rc=2pass / mbtree=0 / bitrate=2150 / ratetol=1.0 / qcomp=0.60 / qpmin=0 / qpmax=69 / qpstep=4 / cplxblur=20.0 / qblur=0.5 / vbv_maxrate=50000 / vbv_bufsize=62500 / nal_hrd=none / filler=0 / ip_ratio=1.40 / pb_ratio=1.30 / aq=1:0.80
Language : French
Default : Yes
Forced : No
Color range : Limited
Color primaries : BT.709
Transfer characteristics : BT.709
Matrix coefficients : BT.709
Audio
ID : 2
Format : AC-3
Format/Info : Audio Coding 3
Commercial name : Dolby Digital
Codec ID : A_AC3
Duration : 1 h 47 min
Bit rate mode : Constant
Bit rate : 384 kb/s
Channel(s) : 6 channels
Channel layout : L R C LFE Ls Rs
Sampling rate : 48.0 kHz
Frame rate : 31.250 FPS (1536 SPF)
Compression mode : Lossy
Stream size : 296 MiB (15%)
Title : iTunes
Language : Russian
Service kind : Complete Main
Default : Yes
Forced : Yes
Text #1
ID : 3
Format : UTF-8
Codec ID : S_TEXT/UTF8
Codec ID/Info : UTF-8 Plain Text
Duration : 1 h 47 min
Bit rate : 20 b/s
Count of elements : 414
Stream size : 16.3 KiB (0%)
Title : Full
Language : Russian
Default : No
Forced : No
Text #2
ID : 4
Format : UTF-8
Codec ID : S_TEXT/UTF8
Codec ID/Info : UTF-8 Plain Text
Duration : 1 h 39 min
Bit rate : 12 b/s
Count of elements : 404
Stream size : 8.99 KiB (0%)
Title : Full
Language : English
Default : No
Forced : No
Text #3
ID : 5
Format : UTF-8
Codec ID : S_TEXT/UTF8
Codec ID/Info : UTF-8 Plain Text
Duration : 1 h 41 min
Bit rate : 19 b/s
Count of elements : 681
Stream size : 14.2 KiB (0%)
Title : SDH
Language : English
Default : No
Forced : No
Menu
00:00:00.000 : :Chapter 1
00:09:42.000 : :Chapter 2
00:16:54.500 : :Chapter 3
00:28:40.667 : :Chapter 4
00:36:36.708 : :Chapter 5
00:46:07.792 : :Chapter 6
00:55:21.250 : :Chapter 7
01:03:39.708 : :Chapter 8
01:12:50.000 : :Chapter 9
01:22:16.625 : :Chapter 10
01:32:49.042 : :Chapter 11
01:42:24.792 : :Chapter 12
Релиз от:
Автор релиза:
pb.wtf



Скачать Титан через торрент https://i116.fastpic.org/big/2021/1024/02/4c7354c62ebc90b09409a05bbebe4d02.jpg Скачать, смотреть онлайн Титан бесплантно в хорошем качестве Описание: После автоаварии, в которую Алексиа попала в детстве, в голове у неё титановая пластина. 15 лет спустя она работает ... 8.2 10 5
Торрент: Зарегистрирован [2021-11-20 10:02] · скачан: 45 раз
Статус: √ проверено
Размер: 1.91 GB
Как cкачать? Как скачать Титан через торрент | UTorrent



Последний раз редактировалось: Lithuania (2021-10-29 20:28), всего редактировалось 1 раз

28-11-2019 20:33  

Отключить всю рекламу на сайте

    Дорогой пользователь! Огромная просьба, поблагодарите релизера, оцените раздачу и оставьте свои комментарий, если Вы скачали Титан через торрент бесплатно!
    Комментировать посты могут только пользователи прошедшие не сложную регистрацию
    Показать сообщения:    

    Титан через торрент
    Скачать бесплатно Титан
    Титан скачать торрент
    Титан смотреть онлайн
    Cкачать фильм Титан бесплатно
    Титан скачать торрент в хорошем качестве
    Титан смотреть онлайн бесплатно в хорошем качестве


    Вы не можете начинать темы
    Вы не можете отвечать на сообщения
    Вы не можете редактировать свои сообщения
    Вы не можете удалять свои сообщения
    Вы не можете голосовать в опросах
    Вы не можете прикреплять файлы к сообщениям
    Вы можете скачивать файлы