Присоединяйтесь к нам в Telegram!, здесь всегда актуальный адрес сайта, оперативная поддержка и многое другое!!

>

5.9

iTunes

7.4

iTunes

9.4

1 сезон

1

7.4

2 сезон

7.2

iTunes

7.3

1 сезон

13

6.1

iTunes

8.3

GOG

30

ULTIMATE

pack

9.9

Лицензия

ВАЖНО

ИГРА 18+

pack

7.3

RePack

MK11

7.7

RePack

jed

7.8

RePack

fifa19

8.5

RePack

RDR2

RePack

NEED FOR SPEED™ PAYBACK

5 сезон

9 сезон

Бесстыжие 9 сезон

Все сериалы

все сериалы на PB.wtf

RePack

FAR CRY 5

Anonymous, доброй ночи, мы катастрофически не успеваем собрать деньги на оплату серверов, помогите нам пожалуйста 5,10,15р., для нас важна любая помощь . В качестве благодарности мы отключим Вам всю рекламу на сайте (укажите свой ник в строку Ваше имя)!

×
  
Magnet ссылка

Щенячий патруль в кино / PAW Patrol: The Movie (Кэллан Брункер) [2021, Мультфильм, комедия, приключения, семейный, BDRip 1080p] DUB [SDI Media] pb.wtf

Щенячий патруль в кино через торрент pb.wtf

Раздают: 4 [ 0 KB/s ]
Размер: 5.45 GB | Добавлен: 1 мес. 7 д. назад | Торрент скачан:157 раз
Смотреть онлайн Щенячий патруль в кино | Скачать    Ребята, помогите собрать деньги на оплату серверов!!!

26-10-2021 02:52 Щенячий патруль в кино Скачать торрент  

Щенячий патруль в кино | PAW Patrol: The Movie
Год выпуска: 2021
Страна: США
Студия: Nickelodeon Animation Studios, Nickelodeon Movies, Paramount Animation, Paramount Pictures, Spin Master Entertainment
Жанр: Мультфильм, комедия, приключения, семейный
Продолжительность: 01:26:01
Перевод: Дублированный | SDI Media
Субтитры: Русские (Forced, full), английские

Режиссер: Кэллан Брункер

rating

В ролях: Иэн Армитедж, Уилл Брисбин, Рон Пардо, Марсаи Мартин, Яра Шахиди, Ким Кардашьян Уэст, Рэндолл Парк, Дэкс Шепард, Джимми Киммел, Тайлер Перри, Саара Чодри, Рауль Банеджа, Лилли Бартлам, Моника Альварез, Киган Хедли

Описание: Когда злодей Хамдингер становится мэром города Приключений, бесстрашные щенки бросают ему вызов. Райдера с друзьями ждут опасности и веселье, тайны прошлого и новые знакомства — так, к патрулю присоединяется находчивая такса Либерти. Вооружившись новыми гаджетами, смекалкой и дружбой, команда хвостатых героев готова противостоять Хамдингеру и спасти жителей города Приключений.

Качество: BDRip 1080p
Формат: MKV

Видео: MPEG-4 AVC, 1920x800, 8230 Kbit/s, 23.976 fps
Аудио #01: 48 kHz, AC3, 2.0, 192 Kbps | Дублированный | SDI Media | RUS |
Аудио #02: 48 kHz, AC3, 5.1, 640 Kbps | Оригинал | ENG |
скриншот  скриншот  скриншот  скриншот  скриншот  

General
Unique ID : 19565687445762882244244701486734401238 (0xEB836DE8E473970C68E49BD79605ED6)
Complete name : E:VideoPAW.Patrol.The.Movie.2021.BDRip.1080p.seleZen.mkv
Format : Matroska
Format version : Version 4
File size : 5.45 GiB
Duration : 1 h 26 min
Overall bit rate : 9 064 kb/s
Movie name : PAW Patrol The Movie 2021 from seleZen
Encoded date : UTC 2021-10-25 19:31:18
Writing application : mkvmerge v59.0.0 ('Shining Star') 64-bit
Writing library : libebml v1.4.2 + libmatroska v1.6.4

Video
ID : 1
Format : AVC
Format/Info : Advanced Video Codec
Format profile : High@L4.1
Format settings : CABAC / 5 Ref Frames
Format settings, CABAC : Yes
Format settings, Reference frames : 5 frames
Codec ID : V_MPEG4/ISO/AVC
Duration : 1 h 26 min
Bit rate : 8 230 kb/s
Width : 1 920 pixels
Height : 800 pixels
Display aspect ratio : 2.40:1
Frame rate mode : Constant
Frame rate : 23.976 (24000/1001) FPS
Color space : YUV
Chroma subsampling : 4:2:0
Bit depth : 8 bits
Scan type : Progressive
Bits/(Pixel*Frame) : 0.223
Stream size : 4.94 GiB (91%)
Writing library : x264 core 163 r3059+79M ~ Encoded by Mocunaman in Portugal
Encoding settings : cabac=1 / ref=5 / deblock=1:-3:-3 / analyse=0x3:0x113 / me=umh / subme=11 / psy=1 / fade_compensate=0.00 / psy_rd=0.80:0.00 / mixed_ref=1 / me_range=48 / chroma_me=1 / trellis=2 / 8x8dct=1 / cqm=0 / deadzone=21,11 / fast_pskip=0 / chroma_qp_offset=-2 / threads=25 / lookahead_threads=4 / sliced_threads=0 / nr=0 / decimate=0 / interlaced=0 / bluray_compat=0 / constrained_intra=0 / fgo=0 / bframes=8 / b_pyramid=2 / b_adapt=2 / b_bias=0 / direct=3 / weightb=1 / open_gop=0 / weightp=2 / keyint=250 / keyint_min=23 / scenecut=40 / intra_refresh=0 / rc_lookahead=60 / rc=crf / mbtree=0 / crf=17.0000 / qcomp=0.60 / qpmin=0:0:0 / qpmax=69:69:69 / qpstep=4 / vbv_maxrate=62500 / vbv_bufsize=78125 / crf_max=0.0 / nal_hrd=none / filler=0 / ip_ratio=1.30 / pb_ratio=1.20 / aq=3:0.90 / aq-sensitivity=10.00 / aq-factor=1.00:1.00:1.00 / aq2=0 / aq3=0 / zones=0,1224,crf=16
Language : English
Default : Yes
Forced : No
Color range : Limited
Color primaries : BT.709
Transfer characteristics : BT.709
Matrix coefficients : BT.709

Audio #1
ID : 2
Format : AC-3
Format/Info : Audio Coding 3
Commercial name : Dolby Digital
Codec ID : A_AC3
Duration : 1 h 26 min
Bit rate mode : Constant
Bit rate : 192 kb/s
Channel(s) : 2 channels
Channel layout : L R
Sampling rate : 48.0 kHz
Frame rate : 31.250 FPS (1536 SPF)
Compression mode : Lossy
Stream size : 118 MiB (2%)
Title : Dub
Language : Russian
Service kind : Complete Main
Default : Yes
Forced : Yes

Audio #2
ID : 3
Format : AC-3
Format/Info : Audio Coding 3
Commercial name : Dolby Digital
Format settings : Dolby Surround EX
Codec ID : A_AC3
Duration : 1 h 26 min
Bit rate mode : Constant
Bit rate : 640 kb/s
Channel(s) : 6 channels
Channel layout : L R C LFE Ls Rs
Sampling rate : 48.0 kHz
Frame rate : 31.250 FPS (1536 SPF)
Compression mode : Lossy
Stream size : 394 MiB (7%)
Title : Original
Language : English
Service kind : Complete Main
Default : No
Forced : No

Text #1
ID : 4
Format : UTF-8
Codec ID : S_TEXT/UTF8
Codec ID/Info : UTF-8 Plain Text
Duration : 1 h 24 min
Bit rate : 0 b/s
Count of elements : 12
Stream size : 540 Bytes (0%)
Title : Forced
Language : Russian
Default : Yes
Forced : Yes

Text #2
ID : 5
Format : UTF-8
Codec ID : S_TEXT/UTF8
Codec ID/Info : UTF-8 Plain Text
Duration : 1 h 25 min
Bit rate : 94 b/s
Count of elements : 1075
Stream size : 58.9 KiB (0%)
Title : Full
Language : Russian
Default : No
Forced : No

Text #3
ID : 6
Format : UTF-8
Codec ID : S_TEXT/UTF8
Codec ID/Info : UTF-8 Plain Text
Duration : 1 h 21 min
Bit rate : 72 b/s
Count of elements : 1605
Stream size : 43.1 KiB (0%)
Title : SDH
Language : English
Default : No
Forced : No

Menu
00:00:00.000 : Chapter 01
00:06:45.488 : Chapter 02
00:13:25.304 : Chapter 03
00:20:28.269 : Chapter 04
00:26:21.079 : Chapter 05
00:32:57.309 : Chapter 06
00:37:40.633 : Chapter 07
00:44:39.427 : Chapter 08
00:49:59.663 : Chapter 09
00:55:14.937 : Chapter 10
01:02:39.214 : Chapter 11
01:11:12.560 : Chapter 12
01:17:17.925 : Chapter 13

pb.wtf



Скачать Щенячий патруль в кино через торрент https://c.radikal.ru/c28/2110/f7/ec57cb2742f6.jpg Скачать, смотреть онлайн Щенячий патруль в кино бесплантно в хорошем качестве Описание: Когда злодей Хамдингер становится мэром города Приключений, бесстрашные щенки бросают ему вызов. Райдера с друзьями ждут ... 10 10 8
Торрент: Зарегистрирован [2021-10-26 02:52] · скачан: 157 раз
Статус: √ проверено
Размер: 5.45 GB
Как cкачать? Как скачать Щенячий патруль в кино через торрент | UTorrent

% Раздел Тема Автор DL S | L
Иностранные мультфильмы [ 1.42 GB ] Щенячий патруль в кино / PAW Patrol: The Movie [2021 Мультфильм BDRip] - Twi7ter Скачать
32 | 1
Иностранные мультфильмы [ 1.91 GB ] Щенячий патруль в кино / PAW Patrol: The Movie [2021 Мультфильм BDRip-AVC] от ExKinoRay Lithuania Скачать
6 | 0
Иностранные мультфильмы [ 1.46 GB ] Щенячий патруль в кино / PAW Patrol: The Movie [2021 Мультфильм HDRip] DUB [SDI Media] bober100 Скачать
2 | 0
Иностранные мультфильмы [ 746 MB ] Щенячий патруль в кино / PAW Patrol: The Movie [2021 Мультфильм HDRip] DUB [SDI Media] bober100 Скачать
1 | 0
Зарубежные Мультфильмы (BDRip 1080p, 720p, Blu-ray, BD-Remux) [ 2.49 GB ] Щенячий патруль в кино / PAW Patrol: The Movie [2021 Мультфильм BDRip 720p] DUB [SDI Media] bober100 Скачать
9 | 0

28-11-2019 20:33  

Отключить всю рекламу на сайте

    Дорогой пользователь! Огромная просьба, поблагодарите релизера, оцените раздачу и оставьте свои комментарий, если Вы скачали Щенячий патруль в кино через торрент бесплатно!
    Комментировать посты могут только пользователи прошедшие не сложную регистрацию
    Показать сообщения:    

    Щенячий патруль в кино через торрент
    Скачать бесплатно Щенячий патруль в кино
    Щенячий патруль в кино скачать торрент
    Щенячий патруль в кино смотреть онлайн
    Cкачать фильм Щенячий патруль в кино бесплатно
    Щенячий патруль в кино скачать торрент в хорошем качестве
    Щенячий патруль в кино смотреть онлайн бесплатно в хорошем качестве


    Вы не можете начинать темы
    Вы не можете отвечать на сообщения
    Вы не можете редактировать свои сообщения
    Вы не можете удалять свои сообщения
    Вы не можете голосовать в опросах
    Вы не можете прикреплять файлы к сообщениям
    Вы можете скачивать файлы