Присоединяйтесь к нам в Telegram!, здесь всегда актуальный адрес сайта, оперативная поддержка и многое другое!!

>

5.9

iTunes

7.4

iTunes

9.4

1 сезон

1

7.4

2 сезон

7.2

iTunes

7.3

1 сезон

13

6.1

iTunes

8.3

Пиратка

30

ULTIMATE

pack

9.9

Лицензия

ВАЖНО

ИГРА 18+

pack

7.3

RePack

MK11

7.7

RePack

jed

7.8

RePack

fifa19

8.5

RePack

RDR2

RePack

NEED FOR SPEED™ PAYBACK

5 сезон

9 сезон

Бесстыжие 9 сезон

Все сериалы

все сериалы на PB.wtf

RePack

FAR CRY 5

Anonymous, доброе утро, мы катастрофически не успеваем собрать деньги на оплату серверов, помогите нам пожалуйста 5,10,15р., для нас важна любая помощь . В качестве благодарности мы отключим Вам всю рекламу на сайте (укажите свой ник в строку Ваше имя)!

×
  
Magnet ссылка

Мужские слезы / Cry Macho (Клинт Иствуд) [2021, Триллер, драма, вестерн, WEB-DLRip-AVC] DUB [iTunes] от ExKinoRay pb.wtf

Мужские слезы через торрент pb.wtf

Раздают: 1 [ 0.2 KB/s ]
Размер: 1.9 GB | Добавлен: 1 мес. 10 д. назад | Торрент скачан:26 раз
Смотреть онлайн Мужские слезы | Скачать    Ребята, помогите собрать деньги на оплату серверов!!!

26-10-2021 15:45 Мужские слезы Скачать торрент  


Мужские слезы / Cry Macho
Информация о фильме:
Название: Мужские слезы
Оригинальное название: Cry Macho
Год выхода: 2021
Жанр: Триллер, драма, вестерн
Режиссер: Клинт Иствуд

В ролях: Клинт Иствуд, Фернанда Уррехола, Дуайт Йоакам, Брити Рэтледж, Горацио Гарсиа Рохас, Ана Рей, Александра Радди, Пол Алайо, Эмбер Линн Эшли, Дэниэл Варгас

Описание: После того как жену с ребенком конезаводчика и победителя Кентуккийского дерби по имени Майк убили, он впал в депрессию, заливая горе алкоголем. Однажды инвестор предлагает Майку выбор: либо уволиться, либо вернуть ему сына, который живет с бывшей женой в Мексике.



Страна: США
Студия: Albert S. Ruddy Productions, Daniel Grodnik Productions, Malpaso Productions, QED International, Warner Bros.
Продолжительность: 01:43:48
Перевод: Дублированный - iTunes



Информация о файле:
Кодек: AVC
Формат: MKV
Качество: WEB-DLRip-AVC
Видео: MPEG-4 AVC, 1024x428, 23.976 fps, 1850 kbps
Аудио RU: AC3, 6 ch, 48 kHz, 384 kbps
Аудио EN: AC3, 6 ch, 48 kHz, 384 kbps
Субтитры: Русские (Full), английские

x264 info: frame I:1206 Avg QP:12.38 size: 79632
x264 info: frame P:35578 Avg QP:15.30 size: 21031
x264 info: frame B:112543 Avg QP:17.10 size: 5294
x264 info: consecutive B-frames: 2.3% 2.8% 5.5% 52.9% 9.7% 16.1% 2.8% 4.8% 0.8% 1.6% 0.8%
General
Unique ID : 233449591087377372150528388738123038766 (0xAFA0C17BFA86A50CF85DD816453C002E)
Complete name : D:uTorrentРипы wolf1245Cry Macho.2021.DUB.iTunes.WEB-DLRip-AVC.[wolf1245.ExKinoRay].mkv
Format : Matroska
Format version : Version 4
File size : 1.90 GiB
Duration : 1 h 43 min
Overall bit rate : 2 620 kb/s
Movie name : Cry Macho.2021.DUB.iTunes.WEB-DLRip-AVC.[wolf1245.ExKinoRay]
Encoded date : UTC 2021-10-26 15:32:13
Writing application : mkvmerge v62.0.0 ('Apollo') 64-bit
Writing library : libebml v1.4.2 + libmatroska v1.6.4
Video
ID : 1
Format : AVC
Format/Info : Advanced Video Codec
Format profile : High@L4.1
Format settings : CABAC / 12 Ref Frames
Format settings, CABAC : Yes
Format settings, Reference frames : 12 frames
Codec ID : V_MPEG4/ISO/AVC
Duration : 1 h 43 min
Bit rate : 1 850 kb/s
Width : 1 024 pixels
Height : 428 pixels
Display aspect ratio : 2.40:1
Frame rate mode : Constant
Frame rate : 23.976 (24000/1001) FPS
Color space : YUV
Chroma subsampling : 4:2:0
Bit depth : 8 bits
Scan type : Progressive
Bits/(Pixel*Frame) : 0.176
Stream size : 1.34 GiB (71%)
Title : -=[wolf1245.ExKinoRay]=-
Writing library : x264 core 161 r3020 d198931
Encoding settings : cabac=1 / ref=12 / deblock=1:-3:-3 / analyse=0x3:0x133 / me=umh / subme=10 / psy=1 / psy_rd=1.02:0.05 / mixed_ref=1 / me_range=32 / chroma_me=1 / trellis=2 / 8x8dct=1 / cqm=0 / deadzone=21,11 / fast_pskip=1 / chroma_qp_offset=-3 / threads=10 / lookahead_threads=2 / sliced_threads=0 / nr=0 / decimate=0 / interlaced=0 / bluray_compat=0 / constrained_intra=0 / bframes=10 / b_pyramid=2 / b_adapt=2 / b_bias=0 / direct=3 / weightb=1 / open_gop=0 / weightp=2 / keyint=240 / keyint_min=24 / scenecut=40 / intra_refresh=0 / rc_lookahead=60 / rc=2pass / mbtree=0 / bitrate=1850 / ratetol=1.0 / qcomp=0.60 / qpmin=0 / qpmax=69 / qpstep=4 / cplxblur=20.0 / qblur=0.5 / vbv_maxrate=50000 / vbv_bufsize=62500 / nal_hrd=none / filler=0 / ip_ratio=1.40 / pb_ratio=1.30 / aq=3:0.80
Language : English
Default : Yes
Forced : No
Color range : Limited
Color primaries : BT.709
Transfer characteristics : BT.709
Matrix coefficients : BT.709
Audio #1
ID : 2
Format : AC-3
Format/Info : Audio Coding 3
Commercial name : Dolby Digital
Codec ID : A_AC3
Duration : 1 h 43 min
Bit rate mode : Constant
Bit rate : 384 kb/s
Channel(s) : 6 channels
Channel layout : L R C LFE Ls Rs
Sampling rate : 48.0 kHz
Frame rate : 31.250 FPS (1536 SPF)
Compression mode : Lossy
Stream size : 285 MiB (15%)
Title : DUB | ITUNES
Language : Russian
Service kind : Complete Main
Default : Yes
Forced : No
Audio #2
ID : 3
Format : AC-3
Format/Info : Audio Coding 3
Commercial name : Dolby Digital
Codec ID : A_AC3
Duration : 1 h 43 min
Bit rate mode : Constant
Bit rate : 384 kb/s
Channel(s) : 6 channels
Channel layout : L R C LFE Ls Rs
Sampling rate : 48.0 kHz
Frame rate : 31.250 FPS (1536 SPF)
Compression mode : Lossy
Stream size : 285 MiB (15%)
Title : Original
Language : English
Service kind : Complete Main
Default : No
Forced : No
Text #1
ID : 4
Format : UTF-8
Codec ID : S_TEXT/UTF8
Codec ID/Info : UTF-8 Plain Text
Duration : 1 h 41 min
Bit rate : 72 b/s
Count of elements : 1239
Stream size : 53.7 KiB (0%)
Title : Full
Language : Russian
Default : No
Forced : No
Text #2
ID : 5
Format : UTF-8
Codec ID : S_TEXT/UTF8
Codec ID/Info : UTF-8 Plain Text
Duration : 1 h 34 min
Bit rate : 44 b/s
Count of elements : 1277
Stream size : 30.9 KiB (0%)
Title : Full
Language : English
Default : No
Forced : No
Text #3
ID : 6
Format : UTF-8
Codec ID : S_TEXT/UTF8
Codec ID/Info : UTF-8 Plain Text
Duration : 1 h 43 min
Bit rate : 51 b/s
Count of elements : 1557
Stream size : 38.9 KiB (0%)
Title : SDH
Language : English
Default : No
Forced : No
Релиз от:
Автор релиза:
pb.wtf



Скачать Мужские слезы через торрент https://i116.fastpic.org/big/2021/1026/39/44527ac6ad487d6384495ab793200839.jpg Скачать, смотреть онлайн Мужские слезы бесплантно в хорошем качестве Описание: После того как жену с ребенком конезаводчика и победителя Кентуккийского дерби по имени Майк убили, он впал в депрессию, ... 10 10 2
Торрент: Зарегистрирован [2021-10-26 15:45] · скачан: 26 раз
Статус: √ проверено
Размер: 1.9 GB
Как cкачать? Как скачать Мужские слезы через торрент | UTorrent

28-11-2019 20:33  

Отключить всю рекламу на сайте

    Дорогой пользователь! Огромная просьба, поблагодарите релизера, оцените раздачу и оставьте свои комментарий, если Вы скачали Мужские слезы через торрент бесплатно!
    Комментировать посты могут только пользователи прошедшие не сложную регистрацию
    Показать сообщения:    

    Мужские слезы через торрент
    Скачать бесплатно Мужские слезы
    Мужские слезы скачать торрент
    Мужские слезы смотреть онлайн
    Cкачать фильм Мужские слезы бесплатно
    Мужские слезы скачать торрент в хорошем качестве
    Мужские слезы смотреть онлайн бесплатно в хорошем качестве


    Вы не можете начинать темы
    Вы не можете отвечать на сообщения
    Вы не можете редактировать свои сообщения
    Вы не можете удалять свои сообщения
    Вы не можете голосовать в опросах
    Вы не можете прикреплять файлы к сообщениям
    Вы можете скачивать файлы