Присоединяйтесь к нам в Telegram!, здесь всегда актуальный адрес сайта, оперативная поддержка и многое другое!!

>

5.9

iTunes

7.4

iTunes

9.4

1 сезон

1

7.4

2 сезон

7.2

iTunes

7.3

1 сезон

13

6.1

iTunes

8.3

Пиратка

30

ULTIMATE

pack

9.9

Лицензия

ВАЖНО

ИГРА 18+

pack

7.3

RePack

MK11

7.7

RePack

jed

7.8

RePack

fifa19

8.5

RePack

RDR2

RePack

NEED FOR SPEED™ PAYBACK

5 сезон

9 сезон

Бесстыжие 9 сезон

Все сериалы

все сериалы на PB.wtf

RePack

FAR CRY 5

Anonymous, доброй ночи, мы катастрофически не успеваем собрать деньги на оплату серверов, помогите нам пожалуйста 5,10,15р., для нас важна любая помощь . В качестве благодарности мы отключим Вам всю рекламу на сайте (укажите свой ник в строку Ваше имя)!

×
  
Magnet ссылка

Остров Бергмана / Bergman Island (Миа Хансен-Лёв) [2021, драма, WEB-DLRip-AVC] MVO [Jaskier ] от ExKinoRay pb.wtf

Остров Бергмана через торрент pb.wtf

Раздают: 1 [ 0 KB/s ]
Размер: 2.19 GB | Добавлен: 1 мес. 10 д. назад | Торрент скачан:20 раз
Смотреть онлайн Остров Бергмана | Скачать    Ребята, помогите собрать деньги на оплату серверов!!!

26-10-2021 17:58 Остров Бергмана Скачать торрент  


Остров Бергмана / Bergman Island
Информация о фильме:
Название: Остров Бергмана
Оригинальное название: Bergman Island
Год выхода: 2021
Жанр: Драма
Режиссер: Миа Хансен-Лёв

В ролях: Вики Крипс, Тим Рот, Грейс Дельру, Миа Васиковска, Андерс Даниелсен Лье, Клара Штраух, Юэль Спира, Теодор Абреу, Феликс Берг, Стиг Бьёркман

Описание: Парочка американских кинематографистов приезжают на шведский остров Форё, где жил и умер режиссер Ингмар Бергман. Они намерены писать сценарии собственных фильмов, но постепенно грань между реальностью и вымыслом начинает стираться.



Страна: Франция, Бельгия, Германия, Швеция, Мексика
Студия: Arte France Cinéma, Barnstormer Productions, CG Cinéma
Продолжительность: 01:52:54
Перевод: Профессиональный (многоголосый, закадровый) - Jaskier



Информация о файле:
Кодек: AVC
Формат: MKV
Качество: WEB-DLRip-AVC
Видео: MPEG-4 AVC, 1024x426, 23.976 fps, 1880 kbps
Аудио RU: AC3, 6 ch, 48 kHz, 448 kbps
Аудио EN: AC3, 6 ch, 48 kHz, 448 kbps
Субтитры: Русские (full (Pazl Voice)), Английские

x264 info: frame I:1059 Avg QP:16.60 size: 50134
x264 info: frame P:39944 Avg QP:18.34 size: 20592
x264 info: frame B:121430 Avg QP:19.69 size: 5843
x264 info: consecutive B-frames: 4.5% 5.6% 10.7% 18.2% 14.0% 29.9% 5.9% 1.8% 7.0% 0.6% 1.8%
General
Unique ID : 314996411900988015805753516782823036448 (0xECFA1A2A23291565D8C7B7E0B14A5620)
Complete name : D:uTorrentРипы wolf1245Bergman Island.2021.MVO.WEB-DLRip-AVC.[wolf1245.ExKinoRay].mkv
Format : Matroska
Format version : Version 4
File size : 2.19 GiB
Duration : 1 h 52 min
Overall bit rate : 2 773 kb/s
Movie name : Bergman Island.2021.MVO.WEB-DLRip-AVC.[wolf1245.ExKinoRay]
Encoded date : UTC 2021-10-26 17:43:43
Writing application : mkvmerge v62.0.0 ('Apollo') 64-bit
Writing library : libebml v1.4.2 + libmatroska v1.6.4
Video
ID : 1
Format : AVC
Format/Info : Advanced Video Codec
Format profile : High@L4.1
Format settings : CABAC / 12 Ref Frames
Format settings, CABAC : Yes
Format settings, Reference frames : 12 frames
Codec ID : V_MPEG4/ISO/AVC
Duration : 1 h 52 min
Bit rate : 1 880 kb/s
Width : 1 024 pixels
Height : 426 pixels
Display aspect ratio : 2.40:1
Frame rate mode : Constant
Frame rate : 23.976 (24000/1001) FPS
Color space : YUV
Chroma subsampling : 4:2:0
Bit depth : 8 bits
Scan type : Progressive
Bits/(Pixel*Frame) : 0.180
Stream size : 1.48 GiB (68%)
Title : -=[wolf1245.ExKinoRay]=-
Writing library : x264 core 161 r3020 d198931
Encoding settings : cabac=1 / ref=12 / deblock=1:-3:-2 / analyse=0x3:0x133 / me=umh / subme=9 / psy=1 / psy_rd=1.03:0.05 / mixed_ref=1 / me_range=48 / chroma_me=1 / trellis=2 / 8x8dct=1 / cqm=0 / deadzone=21,11 / fast_pskip=1 / chroma_qp_offset=-3 / threads=10 / lookahead_threads=2 / sliced_threads=0 / nr=0 / decimate=0 / interlaced=0 / bluray_compat=0 / constrained_intra=0 / bframes=10 / b_pyramid=2 / b_adapt=2 / b_bias=0 / direct=3 / weightb=1 / open_gop=0 / weightp=2 / keyint=240 / keyint_min=24 / scenecut=40 / intra_refresh=0 / rc_lookahead=40 / rc=2pass / mbtree=0 / bitrate=1880 / ratetol=1.0 / qcomp=0.60 / qpmin=0 / qpmax=69 / qpstep=4 / cplxblur=20.0 / qblur=0.5 / vbv_maxrate=50000 / vbv_bufsize=62500 / nal_hrd=none / filler=0 / ip_ratio=1.40 / pb_ratio=1.30 / aq=3:0.80
Language : English
Default : Yes
Forced : No
Color range : Limited
Color primaries : BT.709
Transfer characteristics : BT.709
Matrix coefficients : BT.709
Audio #1
ID : 2
Format : AC-3
Format/Info : Audio Coding 3
Commercial name : Dolby Digital
Codec ID : A_AC3
Duration : 1 h 52 min
Bit rate mode : Constant
Bit rate : 448 kb/s
Channel(s) : 6 channels
Channel layout : L R C LFE Ls Rs
Sampling rate : 48.0 kHz
Frame rate : 31.250 FPS (1536 SPF)
Compression mode : Lossy
Stream size : 362 MiB (16%)
Title : [MVO] Jaskier
Language : Russian
Service kind : Complete Main
Default : Yes
Forced : No
Audio #2
ID : 3
Format : AC-3
Format/Info : Audio Coding 3
Commercial name : Dolby Digital
Codec ID : A_AC3
Duration : 1 h 52 min
Bit rate mode : Constant
Bit rate : 448 kb/s
Channel(s) : 6 channels
Channel layout : L R C LFE Ls Rs
Sampling rate : 48.0 kHz
Frame rate : 31.250 FPS (1536 SPF)
Compression mode : Lossy
Stream size : 362 MiB (16%)
Title : Original
Language : English
Service kind : Complete Main
Default : No
Forced : No
Text #1
ID : 4
Format : UTF-8
Codec ID : S_TEXT/UTF8
Codec ID/Info : UTF-8 Plain Text
Duration : 1 h 50 min
Bit rate : 62 b/s
Count of elements : 1173
Stream size : 50.2 KiB (0%)
Title : [full [Pazl Voice]]
Language : Russian
Default : No
Forced : No
Text #2
ID : 5
Format : UTF-8
Codec ID : S_TEXT/UTF8
Codec ID/Info : UTF-8 Plain Text
Duration : 1 h 52 min
Bit rate : 50 b/s
Count of elements : 1425
Stream size : 41.8 KiB (0%)
Language : English
Default : No
Forced : No
Релиз от:
Автор релиза:
pb.wtf



Скачать Остров Бергмана через торрент https://i116.fastpic.org/big/2021/1026/90/db1d0644af43431ac3d90df0ed4b3090.jpg Скачать, смотреть онлайн Остров Бергмана бесплантно в хорошем качестве Описание: Парочка американских кинематографистов приезжают на шведский остров Форё, где жил и умер режиссер Ингмар Бергман. Они намерены ... 10 10 1
Торрент: Зарегистрирован [2021-10-26 17:58] · скачан: 20 раз
Статус: √ проверено
Размер: 2.19 GB
Как cкачать? Как скачать Остров Бергмана через торрент | UTorrent

28-11-2019 20:33  

Отключить всю рекламу на сайте

    Дорогой пользователь! Огромная просьба, поблагодарите релизера, оцените раздачу и оставьте свои комментарий, если Вы скачали Остров Бергмана через торрент бесплатно!
    Комментировать посты могут только пользователи прошедшие не сложную регистрацию
    Показать сообщения:    

    Остров Бергмана через торрент
    Скачать бесплатно Остров Бергмана
    Остров Бергмана скачать торрент
    Остров Бергмана смотреть онлайн
    Cкачать фильм Остров Бергмана бесплатно
    Остров Бергмана скачать торрент в хорошем качестве
    Остров Бергмана смотреть онлайн бесплатно в хорошем качестве


    Вы не можете начинать темы
    Вы не можете отвечать на сообщения
    Вы не можете редактировать свои сообщения
    Вы не можете удалять свои сообщения
    Вы не можете голосовать в опросах
    Вы не можете прикреплять файлы к сообщениям
    Вы можете скачивать файлы