Доктор Стрэндж

Лицензия

Добыча

Дубляж

Уэнсдэй

1 сезон

Тор

Дубляж

В эфире

Дубляж

Там, где раки поют

MVO

Властелин колец

1 сезон

Deluxe

pack

Рекомендуем

30

Пиратка

ВАЖНО

ВАЖНО

Ghostwire

Пиратка

jed

RePack

nioh2

RePack

RDR2

RePack

NEED FOR SPEED™ PAYBACK

RePack

скачать торрент

Кинопоиск HD

Острые козырьки 6 сезон

6 сезон

FAR CRY 6

RePack

скачать торрент

Лицензия

скачать торрент

MVO

1

1 сезон

скачать торрент

1 сезон

скачать торрент

Лицензия

  

Триумф духа / Triumph of the Spirit (Роберт М. Янг) [1989, драма, военный, биография, история, спорт, WEBRip 720p] [MVO] + [DVO] + [Ukr DVO]

Триумф духа через торрент pb.wtf

Раздают: 1 [ 0 KB/s ]
Размер: 3.12 GB | Добавлен: 1 год 1 мес. назад | Торрент скачан:110 раз
Смотреть онлайн | Скачать   

26-10-2021 18:00 Триумф духа Скачать торрент  

Триумф духаTriumph of the Spirit
✦ Год выпуска: 1989
✦ Страна: США
✦ Жанр: биография, история, драма
✦ Продолжительность: 02:00:25
✦ Перевод #1: Профессиональный (многоголосый) R5
✦ Перевод #2: Профессиональный (двухголосый) ОРТ
✦ Перевод #3: Украинский (профессиональный, двухголосый) ENTER
✦ Субтитры: английские (SDH)

✦ Режиссер: Роберт М. Янг

✦ В ролях: Уиллем Дефо, Эдвард Джеймс Олмос, Роберт Лоджа, Wendy Gazelle, Келли Вульф, Костас Мэндилор, Карио Салем, Эдвард Жентара, Хартмут Бекер

✦ Описание: Сюжет навеян историей жизни молодого греческого боксера, еврея по национальности, Саламо Аруша, который был узником концлагерей Аушвиц и Биркенау во время Второй мировой войны. Его роль сыграл Уиллем Дефо. Саламо с юности увлекался боксом и стал чемпионом Балкан в среднем весе, а вскоре пришли фашисты, и люди с желтыми звездами на одежде были отправлены в концлагеря в Польше. Саламо предоставился шанс выжить, и правила были очень просты. Если он одерживал победу на ринге, его противник шел в газовую камеру. Для того, чтобы остаться в живых, нельзя было потерпеть ни одного поражения.

rating

✦ Качество: WEBRip 720p
✦ Формат: MKV
✦ Видео кодек: x.264
✦ Аудио кодек: AC3, E-AC3
✦ Видео: AVC, 1280x694, 2 829 Kbps, 23,976 fps
✦ Аудио #1 Rus: AC3, 48 kHz, 2 ch, 192 kbps - R5
✦ Аудио #2 Rus: AC3, 48 kHz, 2 ch, 192 kbps - OPT
✦ Аудио #3 Ukr: AC3, 48 kHz, 2 ch, 192 kbps - ENTER
✦ Аудио #4 Eng: E-AC3, 48 kHz, 2 ch, 224 kbps|Original|
*Перевода немецких фраз нет ни в одной из дорожек, но это практически не влияет на восприятие фильма.
скриншот   скриншот   скриншот   скриншот   скриншот   скриншот  
General
Unique ID : 196588064750216450023586002766869806302 (0x93E57BEB6E9A4F84BE68BF164BE7BCDE)
Complete name : G:\Triumph of the Spirit.1989.WEBRip(720p).[MVO], [DVO], [Ukr].xz.mkv
Format : Matroska
Format version : Version 4
File size : 3.12 GiB
Duration : 2 h 0 min
Overall bit rate : 3 703 kb/s
Movie name : Triumph of the Spirit.1989.WEBRip(720p).[MVO], [DVO], [Ukr].xz
Encoded date : UTC 2021-10-26 17:28:40
Writing application : mkvmerge v6.1.0 ('Old Devil') built on Mar 2 2013 14:32:37
Writing library : libebml v1.3.0 + libmatroska v1.4.0 / Lavf57.71.100
Cover : Yes
Attachments : cover.jpg
ENCODING_INFO : MATROSKA,WEBM > MKV 720p 10-bit / H264 > X264 CRF 21.0 HQ Hi10
Language : und

Video
ID : 1
Format : AVC
Format/Info : Advanced Video Codec
Format profile : High [email protected]
Format settings : CABAC / 4 Ref Frames
Format settings, CABAC : Yes
Format settings, Reference : 4 frames
Codec ID : V_MPEG4/ISO/AVC
Duration : 2 h 0 min
Bit rate : 2 829 kb/s
Width : 1 280 pixels
Height : 694 pixels
Display aspect ratio : 1.85:1
Frame rate mode : Constant
Frame rate : 23.976 (24000/1001) FPS
Color space : YUV
Chroma subsampling : 4:2:0
Bit depth : 10 bits
Scan type : Progressive
Bits/(Pixel*Frame) : 0.133
Stream size : 2.38 GiB (76%)
Title : Triumph of the Spirit.1989.WEBRip(720p).[MVO], [DVO], [Ukr].xz
Writing library : x264 core 157 r2958 57baac4
Encoding settings : cabac=1 / ref=3 / deblock=1:-1:-1 / analyse=0x3:0x133 / me=hex / subme=7 / psy=1 / psy_rd=1.00:0.20 / mixed_ref=1 / me_range=16 / chroma_me=1 / trellis=1 / 8x8dct=1 / cqm=0 / deadzone=21,11 / fast_pskip=1 / chroma_qp_offset=-3 / threads=5 / lookahead_threads=1 / sliced_threads=0 / nr=0 / decimate=1 / interlaced=0 / bluray_compat=0 / constrained_intra=0 / bframes=3 / b_pyramid=2 / b_adapt=2 / b_bias=0 / direct=3 / weightb=1 / open_gop=0 / weightp=2 / keyint=240 / keyint_min=24 / scenecut=40 / intra_refresh=0 / rc_lookahead=40 / rc=crf / mbtree=1 / crf=21.0 / qcomp=0.60 / qpmin=0 / qpmax=81 / qpstep=4 / ip_ratio=1.40 / aq=1:1.00
Language : English
Default : Yes
Forced : No
Color range : Limited
Color primaries : BT.709
Transfer characteristics : BT.709
Matrix coefficients : BT.709
Duration_Source : General_Duration

Audio #1
ID : 2
Format : AC-3
Format/Info : Audio Coding 3
Commercial name : Dolby Digital
Codec ID : A_AC3
Duration : 2 h 0 min
Bit rate mode : Constant
Bit rate : 192 kb/s
Channel(s) : 2 channels
Channel layout : L R
Sampling rate : 48.0 kHz
Frame rate : 31.250 FPS (1536 SPF)
Compression mode : Lossy
Stream size : 165 MiB (5%)
Title : MVO_R5
Language : Russian
Service kind : Complete Main
Default : Yes
Forced : No
Duration_Source : General_Duration

Audio #2
ID : 3
Format : AC-3
Format/Info : Audio Coding 3
Commercial name : Dolby Digital
Codec ID : A_AC3
Duration : 2 h 0 min
Bit rate mode : Constant
Bit rate : 192 kb/s
Channel(s) : 2 channels
Channel layout : L R
Sampling rate : 48.0 kHz
Frame rate : 31.250 FPS (1536 SPF)
Compression mode : Lossy
Delay relative to video : 24 ms
Stream size : 165 MiB (5%)
Title : DVO_OPT
Service kind : Complete Main
Default : No
Forced : No
Duration_Source : General_Duration

Audio #3
ID : 4
Format : AC-3
Format/Info : Audio Coding 3
Commercial name : Dolby Digital
Codec ID : A_AC3
Duration : 2 h 0 min
Bit rate mode : Constant
Bit rate : 192 kb/s
Channel(s) : 2 channels
Channel layout : L R
Sampling rate : 48.0 kHz
Frame rate : 31.250 FPS (1536 SPF)
Compression mode : Lossy
Stream size : 165 MiB (5%)
Title : Ukr_ENTER
Language : Ukrainian
Service kind : Complete Main
Default : No
Forced : No
Duration_Source : General_Duration

Audio #4
ID : 5
Format : E-AC-3
Format/Info : Enhanced AC-3
Commercial name : Dolby Digital Plus
Codec ID : A_EAC3
Duration : 2 h 0 min
Bit rate mode : Constant
Bit rate : 224 kb/s
Channel(s) : 2 channels
Channel layout : L R
Sampling rate : 48.0 kHz
Frame rate : 31.250 FPS (1536 SPF)
Compression mode : Lossy
Stream size : 193 MiB (6%)
Title : Eng
Service kind : Complete Main
Default : No
Forced : No
Duration_Source : General_Duration

Text
ID : 6
Format : UTF-8
Codec ID : S_TEXT/UTF8
Codec ID/Info : UTF-8 Plain Text
Title : English (SDH)
Language : English
Default : Yes
Forced : No



Скачать Триумф духа через торрент https://i2-imageban-ru.translate.goog/out/2021/10/26/17ae7ed61bbbc477c320a8697d2bbe07.jpg Скачать, смотреть онлайн Триумф духа бесплантно в хорошем качестве Описание: Сюжет навеян историей жизни молодого греческого боксера, еврея по национальности, Саламо Аруша, который был узником концлагерей ... 10 10 4
Торрент: Зарегистрирован [2021-10-26 18:00] · скачан: 110 раз
Статус: √ проверено
Размер: 3.12 GB
Как cкачать? Как скачать Триумф духа через торрент | UTorrent

28-11-2019 20:33  


Отключить вcю реклaмy на сайте, в т.ч. и в плеере онлайн просмотра!

    Дорогой пользователь! Огромная просьба, поблагодарите релизера, оцените раздачу и оставьте свои комментарий, если Вы скачали Триумф духа через торрент бесплатно!!
    Комментировать посты могут только пользователи прошедшие не сложную регистрацию
    Показать сообщения:    


    Триумф духа через торрент
    Скачать бесплатно Триумф духа
    Триумф духа скачать торрент
    Триумф духа смотреть онлайн
    Cкачать фильм Триумф духа бесплатно
    Триумф духа скачать торрент в хорошем качестве
    Триумф духа смотреть онлайн бесплатно в хорошем качестве
    Вы не можете начинать темы
    Вы не можете отвечать на сообщения
    Вы не можете редактировать свои сообщения
    Вы не можете удалять свои сообщения
    Вы не можете голосовать в опросах
    Вы не можете прикреплять файлы к сообщениям
    Вы можете скачивать файлы
    Триумф духа / Triumph of the Spirit [1989, драма, военный, биография, история, спорт, WEBRip 720p] [MVO] + [DVO] + [Ukr DVO] смотреть онлайн, скачать торрент picoco.icu