Всегда рабочее зеркало просто перед .vidak.icu напиши любое слово или цифру, Пример http://rss.vidak.icu

>

7.4

iTunes

7.4

2 сезон

6.6

iTunes

1

7.4

2 сезон

7.2

iTunes

6.0

MVO

13

6.1

iTunes

8.3

Пиратка

30

ULTIMATE

pack

9.9

Лицензия

ВАЖНО

ИГРА 18+

pack

7.3

RePack

MK11

7.7

RePack

jed

7.8

RePack

fifa19

8.5

RePack

RDR2

RePack

NEED FOR SPEED™ PAYBACK

1 сезон

9 сезон

Бесстыжие 9 сезон

Все сериалы

все сериалы на PB.wtf

RePack

FAR CRY 5

Anonymous, доброй ночи, мы катастрофически не успеваем собрать деньги на оплату серверов, помогите нам пожалуйста 5,10,15р., для нас важна любая помощь . В качестве благодарности мы отключим Вам всю рекламу на сайте (укажите свой ник в строку Ваше имя)!

×
  
Magnet ссылка

Гнев человеческий / Wrath of man / Cash Truck (Гай Ричи) [2021, Боевик, триллер, UHD BDRemux 2160p] DUB [СинеЛаб СаундМикс] pb.wtf

Гнев человеческий через торрент pb.wtf

Размер: 67.3 GB | Добавлен: 2 мес. 26 д. назад | Торрент скачан:51 раз
Смотреть онлайн Гнев человеческий | Скачать    Ребята, помогите собрать деньги на оплату серверов!!!

27-10-2021 01:37 Гнев человеческий Скачать торрент  

Гнев человеческий | Wrath of man | Cash Truck
Год выпуска: 2021
Страна: Великобритания, США
Студия: CAA Media Finance, Flic Films UK, Metro-Goldwyn-Mayer (MGM), Miramax Films, Toff Guy Films
Жанр: Боевик, триллер
Продолжительность: 01:58:24
Перевод(ы): Дублированный | СинеЛаб СаундМикс
Субтитры: Русские (Forced, 2 x full [iTunes, Enigma]), английские

Режиссер: Гай Ричи

rating

В ролях: Джейсон Стэйтем, Алекс Фернс, Холт МакКэллани, Скотт Иствуд, Ниам Алгар, Джош Хартнетт, Джеффри Донован, Лас Алонсо, Деобиа Опарей, Рокки Уильямс, Джейсон Вонг, Остин Ричард Пост, Рауль Кастилло

Описание: Загадочный и холодный на вид Эйч (Джейсон Стэйтем), преследуемый жаждой справедливости, внедряется в инкассаторскую компанию. Его цель — отыскать соучастников серии громких ограблений в Лос-Анджелесе. В этой запутанной и опасной игре все преследуют свои цели и каждый оказывается под подозрением.
«Гнев человеческий» — криминальный триллер Гая Ричи, ремейк французской ленты 2004 года «Инкассатор».

Качество: UHD BDRemux 2160p
Формат: MKV

Видео: 3840x2160 at 24.000 fps, MPEG-H HEVC HDR Video, ~ 76000 kbps avg
Аудио #01: 48 kHz, AC3, 5.1, 448 Kbps | Дублированный | СинеЛаб СаундМикс | RUS |
Аудио #02: 48 kHz, DTS-HD MA, 7.1, 4934 Kbps | Оригинал | ENG |
скриншот  скриншот  скриншот  скриншот  скриншот  

General
Unique ID : 106827167953470054441013549055923834799 (0x505E2A069FA08707C9E74EC2B865CFAF)
Complete name : E:VideoWrath.of.Man.2021.BDREMUX.2160p.HDR.seleZen.mkv
Format : Matroska
Format version : Version 4
File size : 67.3 GiB
Duration : 1 h 58 min
Overall bit rate mode : Variable
Overall bit rate : 81.4 Mb/s
Movie name : Wrath of Man 2021 from seleZen
Encoded date : UTC 2021-10-26 06:58:59
Writing application : mkvmerge v59.0.0 ('Shining Star') 64-bit
Writing library : libebml v1.4.2 + libmatroska v1.6.4

Video
ID : 1
Format : HEVC
Format/Info : High Efficiency Video Coding
Format profile : Main 10@L5.1@High
HDR format : SMPTE ST 2086, HDR10 compatible
Codec ID : V_MPEGH/ISO/HEVC
Duration : 1 h 58 min
Bit rate : 76.0 Mb/s
Width : 3 840 pixels
Height : 2 160 pixels
Display aspect ratio : 16:9
Frame rate mode : Constant
Frame rate : 24.000 FPS
Color space : YUV
Chroma subsampling : 4:2:0 (Type 2)
Bit depth : 10 bits
Bits/(Pixel*Frame) : 0.382
Stream size : 62.8 GiB (93%)
Writing library : ATEME Titan File 3.9.4 (4.9.4.12)
Language : French
Default : Yes
Forced : No
Color range : Limited
Color primaries : BT.2020
Transfer characteristics : PQ
Matrix coefficients : BT.2020 non-constant
Mastering display color primaries : BT.2020
Mastering display luminance : min: 0.0050 cd/m2, max: 1000 cd/m2
Maximum Content Light Level : 832 cd/m2
Maximum Frame-Average Light Level : 166 cd/m2

Audio #1
ID : 2
Format : AC-3
Format/Info : Audio Coding 3
Commercial name : Dolby Digital
Codec ID : A_AC3
Duration : 1 h 58 min
Bit rate mode : Constant
Bit rate : 448 kb/s
Channel(s) : 6 channels
Channel layout : L R C LFE Ls Rs
Sampling rate : 48.0 kHz
Frame rate : 31.250 FPS (1536 SPF)
Compression mode : Lossy
Stream size : 379 MiB (1%)
Title : Dub
Language : Russian
Service kind : Complete Main
Default : Yes
Forced : Yes

Audio #2
ID : 3
Format : DTS XLL
Format/Info : Digital Theater Systems
Commercial name : DTS-HD Master Audio
Codec ID : A_DTS
Duration : 1 h 58 min
Bit rate mode : Variable
Bit rate : 4 934 kb/s
Channel(s) : 8 channels
Channel layout : C L R LFE Lb Rb Lss Rss
Sampling rate : 48.0 kHz
Frame rate : 93.750 FPS (512 SPF)
Bit depth : 24 bits
Compression mode : Lossless
Stream size : 4.08 GiB (6%)
Title : Original
Language : English
Default : No
Forced : No

Text #1
ID : 4
Format : UTF-8
Codec ID : S_TEXT/UTF8
Codec ID/Info : UTF-8 Plain Text
Duration : 1 h 11 min
Bit rate : 0 b/s
Count of elements : 11
Stream size : 453 Bytes (0%)
Title : Forced
Language : Russian
Default : Yes
Forced : Yes

Text #2
ID : 5
Format : UTF-8
Codec ID : S_TEXT/UTF8
Codec ID/Info : UTF-8 Plain Text
Duration : 1 h 57 min
Bit rate : 91 b/s
Count of elements : 1577
Stream size : 78.8 KiB (0%)
Title : Full [iTunes]
Language : English
Default : No
Forced : No

Text #3
ID : 6
Format : UTF-8
Codec ID : S_TEXT/UTF8
Codec ID/Info : UTF-8 Plain Text
Duration : 1 h 51 min
Bit rate : 96 b/s
Count of elements : 1771
Stream size : 79.1 KiB (0%)
Title : Full [Enigma]
Language : Russian
Default : No
Forced : No

Text #4
ID : 7
Format : UTF-8
Codec ID : S_TEXT/UTF8
Codec ID/Info : UTF-8 Plain Text
Duration : 1 h 50 min
Bit rate : 63 b/s
Count of elements : 1792
Stream size : 51.5 KiB (0%)
Title : Full
Language : English
Default : No
Forced : No

Text #5
ID : 8
Format : UTF-8
Codec ID : S_TEXT/UTF8
Codec ID/Info : UTF-8 Plain Text
Duration : 1 h 50 min
Bit rate : 70 b/s
Count of elements : 1990
Stream size : 56.8 KiB (0%)
Title : SDH
Language : English
Default : No
Forced : No

Menu
00:00:00.000 : Chapter 01
00:05:38.625 : Chapter 02
00:12:51.333 : Chapter 03
00:19:34.667 : Chapter 04
00:25:38.083 : Chapter 05
00:31:49.208 : Chapter 06
00:38:14.917 : Chapter 07
00:47:14.833 : Chapter 08
01:02:21.542 : Chapter 09
01:10:15.875 : Chapter 10
01:17:16.292 : Chapter 11
01:24:52.667 : Chapter 12
01:31:42.250 : Chapter 13
01:40:03.417 : Chapter 14
01:46:51.667 : Chapter 15
01:52:40.875 : Chapter 16

pb.wtf



Скачать Гнев человеческий через торрент https://d.radikal.ru/d33/2110/91/10c1ffc17fb2.jpg Скачать, смотреть онлайн Гнев человеческий бесплантно в хорошем качестве Описание: Загадочный и холодный на вид Эйч (Джейсон Стэйтем), преследуемый жаждой справедливости, внедряется в инкассаторскую компанию. Его ... 10 10 5
Торрент: Зарегистрирован [2021-10-27 01:37] · скачан: 51 раз
Статус: √ проверено
Размер: 67.3 GB
Как cкачать? Как скачать Гнев человеческий через торрент | UTorrent

% Раздел Тема Автор DL S | L
Фильмы [HD 720p, 1080p] (Хороший звук DUB, MVO) [ 6 GB ] Гнев человеческий / Wrath of Man / Cash Truck [2021 BDRip 720p] +AVO [Пучков a.k.a Goblin] bober100 Скачать
6 | 0
Фильмы [HD 720p, 1080p] (Хороший звук DUB, MVO) [ 17.16 GB ] Гнев человеческий / Wrath of Man / Cash Truck [2021 BDRip 1080p] +AVO [Пучков a.k.a Goblin] bober100 Скачать
8 | 0

28-11-2019 20:33  

Отключить всю рекламу на сайте

    Дорогой пользователь! Огромная просьба, поблагодарите релизера, оцените раздачу и оставьте свои комментарий, если Вы скачали Гнев человеческий через торрент бесплатно!
    Комментировать посты могут только пользователи прошедшие не сложную регистрацию
    Показать сообщения:    

    Гнев человеческий через торрент
    Скачать бесплатно Гнев человеческий
    Гнев человеческий скачать торрент
    Гнев человеческий смотреть онлайн
    Cкачать фильм Гнев человеческий бесплатно
    Гнев человеческий скачать торрент в хорошем качестве
    Гнев человеческий смотреть онлайн бесплатно в хорошем качестве


    Вы не можете начинать темы
    Вы не можете отвечать на сообщения
    Вы не можете редактировать свои сообщения
    Вы не можете удалять свои сообщения
    Вы не можете голосовать в опросах
    Вы не можете прикреплять файлы к сообщениям
    Вы можете скачивать файлы