Присоединяйтесь к нам в Telegram!, здесь всегда актуальный адрес сайта, оперативная поддержка и многое другое!!

>

5.9

iTunes

7.4

iTunes

9.4

1 сезон

1

7.4

2 сезон

7.2

iTunes

7.3

1 сезон

13

6.1

iTunes

8.3

GOG

30

ULTIMATE

pack

9.9

Лицензия

ВАЖНО

ИГРА 18+

pack

7.3

RePack

MK11

7.7

RePack

jed

7.8

RePack

fifa19

8.5

RePack

RDR2

RePack

NEED FOR SPEED™ PAYBACK

5 сезон

9 сезон

Бесстыжие 9 сезон

Все сериалы

все сериалы на PB.wtf

RePack

FAR CRY 5

Anonymous, добрый вечер, мы катастрофически не успеваем собрать деньги на оплату серверов, помогите нам пожалуйста 5,10,15р., для нас важна любая помощь . В качестве благодарности мы отключим Вам всю рекламу на сайте (укажите свой ник в строку Ваше имя)!

×
  
Magnet ссылка

Главный герой / Free Guy (Шон Леви) [2021 г., фантастика, боевик, комедия, мелодрама, HDRip, Дубляж "iTunes"] pb.wtf

Главный герой через торрент pb.wtf

Раздают: 8 [ 0 KB/s ]
Размер: 721 MB | Добавлен: 1 мес. 5 д. назад | Торрент скачан:24 раза
Смотреть онлайн Главный герой | Скачать    Ребята, помогите собрать деньги на оплату серверов!!!

27-10-2021 18:28 Главный герой Скачать торрент  

Главный герой / Free Guy
Год выпуска: 2021
Страна: США, Канада / 20th Century Studios , Berlanti Productions , 21 Laps Entertainment
Жанр: фантастика, боевик, комедия, мелодрама
Продолжительность: 01:54:58
Перевод: Дубляж(iTunes)
Субтитры: русские форсированные – вшитые

Режиссер: Шон Леви

rating

В ролях: Райан Рейнольдс, Джоди Комер, Лил Рел Ховери, Джо Кири, Уткарш Амбудкар, Тайка Вайтити, Аарон В Рид, Бритни Олдфорд, Камилль Костек, Марк Лайнер

Описание: У сотрудника крупного банка всё идёт по накатанной, пока однажды он не выясняет, что окружающий его мир — это часть огромной видеоигры, а сам он в ней — всего лишь второстепенный персонаж. Хватит ли у него духу переписать свой код, обратить на себя внимание прекрасной девушки и, наконец, спасти мир? Одним словом, получится ли из него главный герой?

Качество: HDRip
Формат: AVI
Видео кодек: DivX
Аудио кодек: MP3
Видео: 640x272 (2.35:1), 23.976 fps, DivX Codec 4.x ~739 kbps avg, 0.18 bit/pixel
Аудио: 48 kHz, MPEG Layer 3, 2 ch, ~128.00 kbps avg

Общее
Полное имя : G:\ФИЛЬМЫ\Главный герой.2021.D.HDRip.avi
Формат : AVI
Формат/Информация : Audio Video Interleave
Размер файла : 721 Мбайт
Продолжительность : 1 ч. 54 м.
Общий поток : 877 Кбит/сек
Программа кодирования : VirtualDubMod 1.5.10.3 | www.virtualdub-fr.org || (build 2550/release)
Библиотека кодирования : VirtualDubMod build 2550/release

Видео
Идентификатор : 0
Формат : MPEG-4 Visual
Профиль формата : Advanced Simple@L5
Настройки формата : BVOP2
Параметр BVOP формата : 2
Параметр QPel формата : Нет
Параметр GMC формата : Без точки перехода
Параметр матрицы формата : Default (MPEG)
Идентификатор кодека : DIVX
Идентификатор кодека/Информация : Project Mayo
Идентификатор кодека/Подсказка : DivX 4
Продолжительность : 1 ч. 54 м.
Битрейт : 740 Кбит/сек
Ширина : 640 пикселей
Высота : 272 пикселя
Соотношение сторон : 2,35:1
Частота кадров : 23,976 (24000/1001) кадра/сек
Цветовое пространство : YUV
Субдискретизация насыщенности : 4:2:0
Битовая глубина : 8 бит
Тип развёртки : Прогрессивная
Метод сжатия : С потерями
Бит/(Пиксели*Кадры) : 0.177
Размер потока : 608 Мбайт (84%)
Библиотека кодирования : XviD 1.2.1 (UTC 2008-12-04)

Аудио
Идентификатор : 1
Формат : MPEG Audio
Версия формата : Version 1
Профиль формата : Layer 3
Настройки формата : Joint stereo / MS Stereo
Идентификатор кодека : 55
Идентификатор кодека/Подсказка : MP3
Продолжительность : 1 ч. 54 м.
Вид битрейта : Постоянный
Битрейт : 128 Кбит/сек
Каналы : 2 канала
Частота : 48,0 КГц
Частота кадров : 41,667 кадра/сек (1152 SPF)
Метод сжатия : С потерями
Размер потока : 105 Мбайт (15%)
Выравнивание : Соединение по промежуткам
Продолжительность промежутка : 42 мс. (1,00 видеокадр)
Время предзагрузки промежутка : 504 мс.
Библиотека кодирования : LAME3.99r
Настройки программы : -m j -V 4 -q 2 -lowpass 17 -b 128

Report created by : MediaInfoLib - v21.09
Report created on : UTC 2021-10-27 18:09:36

pb.wtf



Скачать Главный герой через торрент https://pic1.kartinco.top/new/img/2021-10/27/ig31qu5zlmw50a67s5unl08kr.jpg Скачать, смотреть онлайн Главный герой бесплантно в хорошем качестве Описание: У сотрудника крупного банка всё идёт по накатанной, пока однажды он не выясняет, что окружающий его мир — это часть огромной ... 10 10 1
Торрент: Зарегистрирован [2021-10-27 18:28] · скачан: 24 раз
Статус: √ проверено
Размер: 721 MB
Как cкачать? Как скачать Главный герой через торрент | UTorrent

% Раздел Тема Автор DL S | L
Фильмы 2021 [DVDrip, WEB-DLRip, HDrip] (DUB, MVO) [ 2.13 GB ] Главный герой / Free Guy [2021 BDRip] - Twi7ter Скачать
132 | 1
Фильмы 2021 [DVDrip, WEB-DLRip, HDrip] (DUB, MVO) [ 1.41 GB ] Главный герой / Free Guy [2021 BDRip] - Twi7ter Скачать
165 | 4
Фильмы (HD 720p, 1080p) (48-60 fps) [ 3.29 GB ] Главный герой / Free Guy [2021 WEB-DLRip - HEVC 1080p 10 bit 60 FPS DUB] dd2d3 Скачать
36 | 1
T Фильмы [HD 720p, 1080p] (Хороший звук DUB, MVO) [ 6.13 GB ] Главный герой / Free Guy [2021 BDRip 1080p] [Line] + [DVO] killermax2013 Скачать
34 | 0
Фильмы 2021 [DVDrip, WEB-DLRip, HDrip] (DUB, MVO) [ 2.13 GB ] Главный герой / Free Guy [2021 BDRip] DUB bober100 Скачать
22 | 1
Фильмы 2021 [DVDrip, WEB-DLRip, HDrip] (DUB, MVO) [ 1.41 GB ] Главный герой / Free Guy [2021 BDRip] bober100 Скачать
31 | 1
Ultra HD (UHD: 2K, 4K, 8K) — видео сверхвысокой чёткости [ 47.49 GB ] Главный герой / Free Guy [2021 UHD BDRemux 2160p] DUB bober100 Скачать
45 | 7

28-11-2019 20:33  

Отключить всю рекламу на сайте

    Дорогой пользователь! Огромная просьба, поблагодарите релизера, оцените раздачу и оставьте свои комментарий, если Вы скачали Главный герой через торрент бесплатно!
    Комментировать посты могут только пользователи прошедшие не сложную регистрацию
    Показать сообщения:    

    Главный герой через торрент
    Скачать бесплатно Главный герой
    Главный герой скачать торрент
    Главный герой смотреть онлайн
    Cкачать фильм Главный герой бесплатно
    Главный герой скачать торрент в хорошем качестве
    Главный герой смотреть онлайн бесплатно в хорошем качестве


    Вы не можете начинать темы
    Вы не можете отвечать на сообщения
    Вы не можете редактировать свои сообщения
    Вы не можете удалять свои сообщения
    Вы не можете голосовать в опросах
    Вы не можете прикреплять файлы к сообщениям
    Вы можете скачивать файлы