Присоединяйтесь к нам в Telegram!, здесь всегда актуальный адрес сайта, оперативная поддержка и многое другое!!

>

5.9

iTunes

7.4

iTunes

9.4

1 сезон

1

7.4

2 сезон

7.2

iTunes

7.3

1 сезон

13

6.1

iTunes

8.3

Пиратка

30

ULTIMATE

pack

9.9

Лицензия

ВАЖНО

ИГРА 18+

pack

7.3

RePack

MK11

7.7

RePack

jed

7.8

RePack

fifa19

8.5

RePack

RDR2

RePack

NEED FOR SPEED™ PAYBACK

5 сезон

9 сезон

Бесстыжие 9 сезон

Все сериалы

все сериалы на PB.wtf

RePack

FAR CRY 5

Anonymous, доброй ночи, мы катастрофически не успеваем собрать деньги на оплату серверов, помогите нам пожалуйста 5,10,15р., для нас важна любая помощь . В качестве благодарности мы отключим Вам всю рекламу на сайте (укажите свой ник в строку Ваше имя)!

×
  
Magnet ссылка

Кэндимен / Candyman (Ниа ДаКоста) [2021, Ужасы, триллер, HDRip-AVC] DUB [iTunes] от ExKinoRay pb.wtf

Кэндимен через торрент pb.wtf

Раздают: 1 [ 0 KB/s ]
Размер: 1.67 GB | Добавлен: 29 д. назад | Торрент скачан:37 раз
Смотреть онлайн Кэндимен | Скачать    Ребята, помогите собрать деньги на оплату серверов!!!

28-10-2021 17:38 Кэндимен Скачать торрент  


Кэндимен / Candyman
Информация о фильме:
Название: Кэндимен
Оригинальное название: Candyman
Год выхода: 2021
Жанр: Ужасы, триллер
Режиссер: Ниа ДаКоста

В ролях: Яхья Абдул-Матин II, Тейона Паррис, Нэйтан Стюарт-Джарретт, Колман Доминго, Кайл Каминский, Ванесса Уильямс (II), Брайан Кинг, Мириам Мосс, Ребекка Спенс, Карл Клемонс-Хопкинс, Кристиана Кларк, Майкл Харгров, Родни Л Джонс III, Хайди Грэйс Энгерман

Описание: В поисках идей молодой художник из Чикаго Энтони Маккой решает изучить историю района, куда он недавно переехал вместе со своей подругой. Исследование знакомит его с пожилым местным жителем, который рассказывает парню о печально известном маньяке Кэндимене, убивающего тех, кто перед зеркалом пять раз произнесёт его имя. Вдохновившись этой историей, Энтони создаёт экспонат для выставки, где после закрытия происходит двойное убийство.



Страна: США, Канада, Австралия
Студия: Universal Pictures, Metro-Goldwyn-Mayer (MGM), BRON Studios
Продолжительность: 01:43:31
Перевод: Дублированный - iTunes



Информация о файле:
Кодек: AVC
Формат: MKV
Качество: HDRip-AVC
Видео: MPEG-4 AVC, 1024x428, 23.976 fps, 1800 kbps
Аудио RU: AC3, 6 ch, 48 kHz, 384 kbps
Аудио EN: AC3, 6 ch, 48 kHz, 448 kbps
Субтитры: Русские (Forced, Full), английские

General
Unique ID : 237980828737615436737254320047618038907 (0xB30970BFBB31E8A49B653AE51FEC9C7B)
Complete name : D:uTorrentРипы wolf1245Candyman2021.DUB.iTunes.HDRip-AVC.[wolf1245.ExKinoRay].mkv
Format : Matroska
Format version : Version 4
File size : 1.67 GiB
Duration : 1 h 31 min
Overall bit rate : 2 632 kb/s
Movie name : Candyman2021.DUB.iTunes.HDRip-AVC.[wolf1245.ExKinoRay]
Encoded date : UTC 2021-11-06 05:46:40
Writing application : mkvmerge v62.0.0 ('Apollo') 64-bit
Writing library : libebml v1.4.2 + libmatroska v1.6.4
Video
ID : 1
Format : AVC
Format/Info : Advanced Video Codec
Format profile : High@L4.1
Format settings : CABAC / 12 Ref Frames
Format settings, CABAC : Yes
Format settings, Reference frames : 12 frames
Codec ID : V_MPEG4/ISO/AVC
Duration : 1 h 31 min
Bit rate : 1 800 kb/s
Width : 1 024 pixels
Height : 428 pixels
Display aspect ratio : 2.40:1
Frame rate mode : Constant
Frame rate : 23.976 (24000/1001) FPS
Color space : YUV
Chroma subsampling : 4:2:0
Bit depth : 8 bits
Scan type : Progressive
Bits/(Pixel*Frame) : 0.171
Stream size : 1.14 GiB (68%)
Title : -=[wolf1245.ExKinoRay]=-
Writing library : x264 core 161 r3020 d198931
Encoding settings : cabac=1 / ref=12 / deblock=1:-3:-3 / analyse=0x3:0x133 / me=umh / subme=10 / psy=1 / psy_rd=1.02:0.05 / mixed_ref=1 / me_range=48 / chroma_me=1 / trellis=2 / 8x8dct=1 / cqm=0 / deadzone=21,11 / fast_pskip=1 / chroma_qp_offset=-3 / threads=10 / lookahead_threads=2 / sliced_threads=0 / nr=0 / decimate=0 / interlaced=0 / bluray_compat=0 / constrained_intra=0 / bframes=10 / b_pyramid=2 / b_adapt=2 / b_bias=0 / direct=3 / weightb=1 / open_gop=0 / weightp=2 / keyint=240 / keyint_min=24 / scenecut=40 / intra_refresh=0 / rc_lookahead=60 / rc=2pass / mbtree=0 / bitrate=1800 / ratetol=1.0 / qcomp=0.60 / qpmin=0 / qpmax=69 / qpstep=4 / cplxblur=20.0 / qblur=0.5 / vbv_maxrate=50000 / vbv_bufsize=62500 / nal_hrd=none / filler=0 / ip_ratio=1.40 / pb_ratio=1.30 / aq=1:0.80
Language : English
Default : Yes
Forced : No
Color range : Limited
Color primaries : BT.709
Matrix coefficients : BT.709
Audio #1
ID : 2
Format : AC-3
Format/Info : Audio Coding 3
Commercial name : Dolby Digital
Codec ID : A_AC3
Duration : 1 h 31 min
Bit rate mode : Constant
Bit rate : 384 kb/s
Channel(s) : 6 channels
Channel layout : L R C LFE Ls Rs
Sampling rate : 48.0 kHz
Frame rate : 31.250 FPS (1536 SPF)
Compression mode : Lossy
Stream size : 250 MiB (15%)
Title : iTunes | DUB
Language : Russian
Service kind : Complete Main
Default : Yes
Forced : No
Audio #2
ID : 3
Format : AC-3
Format/Info : Audio Coding 3
Commercial name : Dolby Digital
Codec ID : A_AC3
Duration : 1 h 31 min
Bit rate mode : Constant
Bit rate : 448 kb/s
Channel(s) : 6 channels
Channel layout : L R C LFE Ls Rs
Sampling rate : 48.0 kHz
Frame rate : 31.250 FPS (1536 SPF)
Compression mode : Lossy
Stream size : 292 MiB (17%)
Title : Original
Language : English
Service kind : Complete Main
Default : No
Forced : No
Text #1
ID : 4
Format : UTF-8
Codec ID : S_TEXT/UTF8
Codec ID/Info : UTF-8 Plain Text
Duration : 1 h 28 min
Bit rate : 0 b/s
Count of elements : 11
Stream size : 573 Bytes (0%)
Title : Forced
Language : Russian
Default : Yes
Forced : Yes
Text #2
ID : 5
Format : UTF-8
Codec ID : S_TEXT/UTF8
Codec ID/Info : UTF-8 Plain Text
Duration : 1 h 24 min
Bit rate : 77 b/s
Count of elements : 1011
Stream size : 48.4 KiB (0%)
Title : Full
Language : Russian
Default : No
Forced : No
Text #3
ID : 6
Format : UTF-8
Codec ID : S_TEXT/UTF8
Codec ID/Info : UTF-8 Plain Text
Duration : 1 h 26 min
Bit rate : 56 b/s
Count of elements : 1255
Stream size : 35.8 KiB (0%)
Title : SDH
Language : English
Default : No
Forced : No
Menu
00:00:00.000 : :Chapter 01
00:06:34.269 : :Chapter 02
00:12:45.515 : :Chapter 03
00:18:00.621 : :Chapter 04
00:21:03.888 : :Chapter 05
00:24:59.915 : :Chapter 06
00:30:13.311 : :Chapter 07
00:34:37.117 : :Chapter 08
00:38:23.760 : :Chapter 09
00:41:22.772 : :Chapter 10
00:46:14.480 : :Chapter 11
00:49:43.647 : :Chapter 12
00:53:53.313 : :Chapter 13
00:57:36.870 : :Chapter 14
01:00:56.027 : :Chapter 15
01:03:32.434 : :Chapter 16
01:08:56.131 : :Chapter 17
01:13:33.034 : :Chapter 18
01:20:20.399 : :Chapter 19
01:26:08.330 : :Chapter 20
Релиз от:
Автор релиза:
pb.wtf



Скачать Кэндимен через торрент https://i116.fastpic.org/big/2021/1028/aa/864cd9d363c417c9a0a346f563b4f7aa.jpg Скачать, смотреть онлайн Кэндимен бесплантно в хорошем качестве Описание: В поисках идей молодой художник из Чикаго Энтони Маккой решает изучить историю района, куда он недавно переехал вместе со своей ... 10 10 6
Торрент: Зарегистрирован [2021-11-06 06:01] · скачан: 37 раз
Статус: √ проверено
Размер: 1.67 GB
Как cкачать? Как скачать Кэндимен через торрент | UTorrent

28-11-2019 20:33  

Отключить всю рекламу на сайте

    Дорогой пользователь! Огромная просьба, поблагодарите релизера, оцените раздачу и оставьте свои комментарий, если Вы скачали Кэндимен через торрент бесплатно!
    Комментировать посты могут только пользователи прошедшие не сложную регистрацию
    Показать сообщения:    

    Кэндимен через торрент
    Скачать бесплатно Кэндимен
    Кэндимен скачать торрент
    Кэндимен смотреть онлайн
    Cкачать фильм Кэндимен бесплатно
    Кэндимен скачать торрент в хорошем качестве
    Кэндимен смотреть онлайн бесплатно в хорошем качестве


    Вы не можете начинать темы
    Вы не можете отвечать на сообщения
    Вы не можете редактировать свои сообщения
    Вы не можете удалять свои сообщения
    Вы не можете голосовать в опросах
    Вы не можете прикреплять файлы к сообщениям
    Вы можете скачивать файлы