Присоединяйтесь к нам в Telegram!, здесь всегда актуальный адрес сайта, оперативная поддержка и многое другое!!

>

5.9

iTunes

7.4

iTunes

9.4

1 сезон

1

7.4

2 сезон

7.2

iTunes

7.3

1 сезон

13

6.1

iTunes

8.3

Пиратка

30

ULTIMATE

pack

9.9

Лицензия

ВАЖНО

ИГРА 18+

pack

7.3

RePack

MK11

7.7

RePack

jed

7.8

RePack

fifa19

8.5

RePack

RDR2

RePack

NEED FOR SPEED™ PAYBACK

5 сезон

9 сезон

Бесстыжие 9 сезон

Все сериалы

все сериалы на PB.wtf

RePack

FAR CRY 5

Anonymous, доброе утро, мы катастрофически не успеваем собрать деньги на оплату серверов, помогите нам пожалуйста 5,10,15р., для нас важна любая помощь . В качестве благодарности мы отключим Вам всю рекламу на сайте (укажите свой ник в строку Ваше имя)!

×
  
Magnet ссылка

Армия воров / Army of Thieves (Маттиас Швайгхефер) [2021, Боевик, триллер, криминал, WEB-DLRip-AVC] DUB [Пифагор / Netflix] pb.wtf

Армия воров через торрент pb.wtf

Раздают: 4 [ 1 KB/s ]
Размер: 2.18 GB | Добавлен: 1 мес. 7 д. назад | Торрент скачан:144 раза
Смотреть онлайн Армия воров | Скачать    Ребята, помогите собрать деньги на оплату серверов!!!

29-10-2021 17:21 Армия воров Скачать торрент  

Армия воров | Army of Thieves
Год выпуска: 2021
Страна: Германия, США
Выпущено: Film United, Pantaleon Films, The Stone Quarry
Жанр: Боевик, триллер, криминал
Продолжительность: 02:09:34
Перевод: Дублированный | Пифагор по заказу Netflix
Субтитры: Русские (Forced, full)

Режиссер: Маттиас Швайгхефер

rating

В ролях: Маттиас Швайгхёфер, Натали Эммануэль, Руби О. Фи, Стюарт Мартин, Гуз Кхан, Джонатан Коэн, Ноэмиэ Накаи, Трент Гарретт, Джон Бубняк, Джим Хай

Описание: Приквел фильма «Армия мертвецов», рассказывающий историю немецкого взломщика сейфов Людвига Дитера, который возглавляет армию воров, специализирующихся на самых неприступных сейфах мира. Дитер и его команда планируют грандиозное ограбление в то время, когда в мире начинается зомби-апокалипсис.

Качество: WEB-DLRip-AVC
Формат: MKV

Видео: 1024x512 at 24.000 fps, x264@L4.1, ~1964 kbps
Аудио: AC3, 48 kHz, 6 ch, ~448.00 kbps avg
скриншот  скриншот  скриншот  скриншот  скриншот  

x264 [info]: frame I:2002 Avg QP:13.14 size: 64091
x264 [info]: frame P:45044 Avg QP:16.25 size: 21893
x264 [info]: frame B:139545 Avg QP:18.27 size: 5684

General
Unique ID : 119317857370078638150756224349934291606 (0x59C3C88F95786F852A29AFDFA9AD8A96)
Complete name : K:Army.of.Thieves.2021.NF.WEB-DLRip-AVC.mkv
Format : Matroska
Format version : Version 4
File size : 2.18 GiB
Duration : 2 h 9 min
Overall bit rate : 2 413 kb/s
Encoded date : UTC 2021-10-29 10:09:22
Writing application : mkvmerge v62.0.0 ('Apollo') 64-bit
Writing library : libebml v1.4.2 + libmatroska v1.6.4
Cover : Yes
Attachments : cover.jpg / cover 2.jpg

Video
ID : 1
Format : AVC
Format/Info : Advanced Video Codec
Format profile : High@L4.1
Format settings : CABAC / 10 Ref Frames
Format settings, CABAC : Yes
Format settings, Reference : 10 frames
Codec ID : V_MPEG4/ISO/AVC
Duration : 2 h 9 min
Bit rate : 1 964 kb/s
Width : 1 024 pixels
Height : 512 pixels
Display aspect ratio : 2.000
Frame rate mode : Constant
Frame rate : 24.000 FPS
Color space : YUV
Chroma subsampling : 4:2:0
Bit depth : 8 bits
Scan type : Progressive
Bits/(Pixel*Frame) : 0.156
Stream size : 1.78 GiB (81%)
Title : -=DoMiNo=-
Writing library : x264 core 164 r3075+55M 97d28bb t_mod_New [(8 & 10)-bit@all X86_64]
Encoding settings : cabac=1 / ref=10 / deblock=1:-3:-2 / analyse=0x3:0x133 / me=umh / subme=10 / psy=1 / fade_compensate=0.00 / psy_rd=1.07:0.15 / mixed_ref=1 / me_range=32 / chroma_me=1 / trellis=2 / 8x8dct=1 / cqm=0 / deadzone=21,11 / fast_pskip=0 / chroma_qp_offset=-3 / threads=16 / lookahead_threads=4 / sliced_threads=0 / nr=0 / decimate=0 / interlaced=0 / bluray_compat=0 / constrained_intra=0 / fgo=0 / bframes=10 / b_pyramid=2 / b_adapt=2 / b_bias=0 / direct=3 / weightb=1 / open_gop=0 / weightp=2 / keyint=250 / keyint_min=23 / scenecut=40 / intra_refresh=0 / rc_lookahead=60 / rc=2pass / mbtree=0 / bitrate=1964 / ratetol=1.0 / qcomp=0.60 / qpmin=0:0:0 / qpmax=69:69:69 / qpstep=4 / cplxblur=20.0 / qblur=0.5 / vbv_maxrate=50000 / vbv_bufsize=62500 / nal_hrd=none / filler=0 / ip_ratio=1.40 / pb_ratio=1.30 / aq=2:0.90 / aq-sensitivity=10.00 / aq-factor=1.00:1.00:1.00 / aq2=0 / aq3=0
Language : English
Default : Yes
Forced : No

Audio
ID : 2
Format : AC-3
Format/Info : Audio Coding 3
Commercial name : Dolby Digital
Codec ID : A_AC3
Duration : 2 h 9 min
Bit rate mode : Constant
Bit rate : 448 kb/s
Channel(s) : 6 channels
Channel layout : L R C LFE Ls Rs
Sampling rate : 48.0 kHz
Frame rate : 31.250 FPS (1536 SPF)
Compression mode : Lossy
Stream size : 415 MiB (19%)
Title : DUB
Language : Russian
Service kind : Complete Main
Default : Yes
Forced : No

Text #1
ID : 3
Format : UTF-8
Codec ID : S_TEXT/UTF8
Codec ID/Info : UTF-8 Plain Text
Duration : 2 h 7 min
Bit rate : 5 b/s
Count of elements : 131
Stream size : 4.79 KiB (0%)
Title : Forced
Language : Russian
Default : No
Forced : No

Text #2
ID : 4
Format : UTF-8
Codec ID : S_TEXT/UTF8
Codec ID/Info : UTF-8 Plain Text
Duration : 2 h 7 min
Bit rate : 77 b/s
Count of elements : 1514
Stream size : 72.0 KiB (0%)
Language : Russian
Default : No
Forced : No

pb.wtf



Скачать Армия воров через торрент https://i116.fastpic.org/big/2021/1029/2b/3dc96e7a6da755d57c95ea715e38c02b.jpg Скачать, смотреть онлайн Армия воров бесплантно в хорошем качестве Описание: Приквел фильма «Армия мертвецов», рассказывающий историю немецкого взломщика сейфов Людвига Дитера, который возглавляет армию ... 10 10 8
Торрент: Зарегистрирован [2021-10-29 17:21] · скачан: 144 раз
Статус: √ проверено
Размер: 2.18 GB
Как cкачать? Как скачать Армия воров через торрент | UTorrent

% Раздел Тема Автор DL S | L
Фильмы (WEB-DL 720p, 1080p) [ 5.14 GB ] Армия воров / Army of Thieves [2021 WEB-DL 1080p] DUB [Пифагор / Netflix] bober100 Скачать
20 | 0
Фильмы (WEB-DL 720p, 1080p) [ 6.49 GB ] Армия воров / Army of Thieves [2021 WEB-DL-HEVC 1080p] DUB [Пифагор / Netflix] bober100 Скачать
17 | 0
Фильмы 2021 [DVDrip, WEB-DLRip, HDrip] (DUB, MVO) [ 2.18 GB ] Армия воров / Army of Thieves [2021 WEB-DLRip] - [ / Netflix] Twi7ter Скачать
40 | 0
Фильмы 2021 [DVDrip, WEB-DLRip, HDrip] (DUB, MVO) [ 1.46 GB ] Армия воров / Army of Thieves [2021 WEB-DLRip] - [ / Netflix] Twi7ter Скачать
940 | 15
Ultra HD (UHD: 2K, 4K, 8K) — видео сверхвысокой чёткости [ 16.04 GB ] Армия воров / Army of Thieves [2021 UHD WEB-DL-HEVC 2160p] DUB [Пифагор / Netflix] bober100 Скачать
116 | 2
Фильмы 2021 [DVDrip, WEB-DLRip, HDrip] (DUB, MVO) [ 2.85 GB ] Армия воров / Army of Thieves [2021 WEB-DLRip-AVC] DUB [Netflix] от ExKinoRay Lithuania Скачать
10 | 0

28-11-2019 20:33  

Отключить всю рекламу на сайте

    Дорогой пользователь! Огромная просьба, поблагодарите релизера, оцените раздачу и оставьте свои комментарий, если Вы скачали Армия воров через торрент бесплатно!
    Комментировать посты могут только пользователи прошедшие не сложную регистрацию
    Показать сообщения:    

    Армия воров через торрент
    Скачать бесплатно Армия воров
    Армия воров скачать торрент
    Армия воров смотреть онлайн
    Cкачать фильм Армия воров бесплатно
    Армия воров скачать торрент в хорошем качестве
    Армия воров смотреть онлайн бесплатно в хорошем качестве


    Вы не можете начинать темы
    Вы не можете отвечать на сообщения
    Вы не можете редактировать свои сообщения
    Вы не можете удалять свои сообщения
    Вы не можете голосовать в опросах
    Вы не можете прикреплять файлы к сообщениям
    Вы можете скачивать файлы