Присоединяйтесь к нам в Telegram!, здесь всегда актуальный адрес сайта, оперативная поддержка и многое другое!!

>

5.9

iTunes

7.4

iTunes

9.4

1 сезон

1

7.4

2 сезон

7.2

iTunes

7.3

1 сезон

13

6.1

iTunes

8.3

GOG

30

ULTIMATE

pack

9.9

Лицензия

ВАЖНО

ИГРА 18+

pack

7.3

RePack

MK11

7.7

RePack

jed

7.8

RePack

fifa19

8.5

RePack

RDR2

RePack

NEED FOR SPEED™ PAYBACK

5 сезон

9 сезон

Бесстыжие 9 сезон

Все сериалы

все сериалы на PB.wtf

RePack

FAR CRY 5

Anonymous, добрый день, мы катастрофически не успеваем собрать деньги на оплату серверов, помогите нам пожалуйста 5,10,15р., для нас важна любая помощь . В качестве благодарности мы отключим Вам всю рекламу на сайте (укажите свой ник в строку Ваше имя)!

×
  
Magnet ссылка

Дюна / Dune: Part One (Дени Вильнёв) [2021 г., фантастика, боевик, драма, приключения, WEB-DLRip, Дубляж "iTunes"](AMAZON) pb.wtf

Дюна через торрент pb.wtf

Раздают: 1 [ 0 KB/s ]
Размер: 942 MB | Добавлен: 1 мес. 3 д. назад | Торрент скачан:35 раз
Смотреть онлайн Дюна | Скачать    Ребята, помогите собрать деньги на оплату серверов!!!

29-10-2021 18:03 Дюна Скачать торрент  

Дюна / Dune: Part One
Год выпуска: 2021
Страна: США, Канада, Венгрия / Warner Bros.Legendary EntertainmentVilleneuve Films
Жанр: фантастика, боевик, драма, приключения
Продолжительность: 02:35:24
Перевод: Дубляж (iTunes)
Тип релиза: русские форсированные – вшитые
«Час настал»

Режиссер: Дени Вильнёв

rating

В ролях: Тимоти Шаламе, Ребекка Фергюсон, Оскар Айзек, Джош Бролин, Джейсон Момоа, Зендея, Стеллан Скарсгард, Хавьер Бардем, Дэйв Батиста, Шарлотта Рэмплинг

Описание: Наследник знаменитого дома Атрейдесов Пол отправляется вместе с семьей на одну из самых опасных планет во Вселенной — Арракис. Здесь нет ничего, кроме песка, палящего солнца, гигантских чудовищ и основной причины межгалактических конфликтов — невероятно ценного ресурса, который называется меланж. В результате захвата власти Пол вынужден бежать и скрываться, и это становится началом его эпического путешествия. Враждебный мир Арракиса приготовил для него множество тяжелых испытаний, но только тот, кто готов взглянуть в глаза своему страху, достоин стать избранным.

Качество: WEB-DLRip
Формат: AVI
Видео кодек: DivX
Аудио кодек: MP3
Видео: 640x272 (2.35:1), 23.976 fps, DivX Codec 4.x ~709 kbps avg, 0.17 bit/pixel
Аудио: 48 kHz, MPEG Layer 3, 2 ch, ~128.00 kbps avg

Общее
Полное имя : G:\ФИЛЬМЫ\Дюна.2021.D.WEB-DLRip(AMAZON).avi
Формат : AVI
Формат/Информация : Audio Video Interleave
Размер файла : 942 Мбайт
Продолжительность : 2 ч. 35 м.
Общий поток : 847 Кбит/сек
Программа кодирования : VirtualDubMod 1.5.10.3 | www.virtualdub-fr.org || (build 2550/release)
Библиотека кодирования : VirtualDubMod build 2550/release

Видео
Идентификатор : 0
Формат : MPEG-4 Visual
Профиль формата : Advanced Simple@L5
Настройки формата : BVOP2
Параметр BVOP формата : 2
Параметр QPel формата : Нет
Параметр GMC формата : Без точки перехода
Параметр матрицы формата : Default (MPEG)
Идентификатор кодека : DIVX
Идентификатор кодека/Информация : Project Mayo
Идентификатор кодека/Подсказка : DivX 4
Продолжительность : 2 ч. 35 м.
Битрейт : 710 Кбит/сек
Ширина : 640 пикселей
Высота : 272 пикселя
Соотношение сторон : 2,35:1
Частота кадров : 23,976 (24000/1001) кадра/сек
Цветовое пространство : YUV
Субдискретизация насыщенности : 4:2:0
Битовая глубина : 8 бит
Тип развёртки : Прогрессивная
Метод сжатия : С потерями
Бит/(Пиксели*Кадры) : 0.170
Размер потока : 789 Мбайт (84%)
Библиотека кодирования : XviD 1.2.1 (UTC 2008-12-04)

Аудио
Идентификатор : 1
Формат : MPEG Audio
Версия формата : Version 1
Профиль формата : Layer 3
Настройки формата : Joint stereo
Идентификатор кодека : 55
Идентификатор кодека/Подсказка : MP3
Продолжительность : 2 ч. 35 м.
Вид битрейта : Постоянный
Битрейт : 128 Кбит/сек
Каналы : 2 канала
Частота : 48,0 КГц
Частота кадров : 41,667 кадра/сек (1152 SPF)
Метод сжатия : С потерями
Размер потока : 142 Мбайт (15%)
Выравнивание : Соединение по промежуткам
Продолжительность промежутка : 42 мс. (1,00 видеокадр)
Время предзагрузки промежутка : 504 мс.
Библиотека кодирования : LAME3.99r
Настройки программы : -m j -V 4 -q 2 -lowpass 17 -b 128

Report created by : MediaInfoLib - v21.09
Report created on : UTC 2021-10-29 17:38:23

pb.wtf



Скачать Дюна через торрент https://pic1.kartinco.top/new/img/2021-10/29/sy9abe102ywr47brhjkz3636o.jpg Скачать, смотреть онлайн Дюна бесплантно в хорошем качестве Описание: Наследник знаменитого дома Атрейдесов Пол отправляется вместе с семьей на одну из самых опасных планет во Вселенной — Арракис. ... 10 10 1
Торрент: Зарегистрирован [2021-10-29 18:03] · скачан: 35 раз
Статус: √ проверено
Размер: 942 MB
Как cкачать? Как скачать Дюна через торрент | UTorrent

28-11-2019 20:33  

Отключить всю рекламу на сайте

02-11-2021 19:53 Дюна Скачать торрент  

Не понравился фильм, довольно скучно и уныло. Конечно, атмосфера и картинка хорошие, но создаётся впечатление, будто это пролог, а не целый фильм.pb.wtf



    Дорогой пользователь! Огромная просьба, поблагодарите релизера, оцените раздачу и оставьте свои комментарий, если Вы скачали Дюна через торрент бесплатно!
    Комментировать посты могут только пользователи прошедшие не сложную регистрацию
    Показать сообщения:    

    Дюна через торрент
    Скачать бесплатно Дюна
    Дюна скачать торрент
    Дюна смотреть онлайн
    Cкачать фильм Дюна бесплатно
    Дюна скачать торрент в хорошем качестве
    Дюна смотреть онлайн бесплатно в хорошем качестве


    Вы не можете начинать темы
    Вы не можете отвечать на сообщения
    Вы не можете редактировать свои сообщения
    Вы не можете удалять свои сообщения
    Вы не можете голосовать в опросах
    Вы не можете прикреплять файлы к сообщениям
    Вы можете скачивать файлы