Присоединяйтесь к нам в Telegram!, здесь всегда актуальный адрес сайта, оперативная поддержка и многое другое!!

>

5.9

iTunes

7.4

iTunes

9.4

1 сезон

1

7.4

2 сезон

7.2

iTunes

7.3

1 сезон

13

6.1

iTunes

8.3

GOG

30

ULTIMATE

pack

9.9

Лицензия

ВАЖНО

ИГРА 18+

pack

7.3

RePack

MK11

7.7

RePack

jed

7.8

RePack

fifa19

8.5

RePack

RDR2

RePack

NEED FOR SPEED™ PAYBACK

5 сезон

9 сезон

Бесстыжие 9 сезон

Все сериалы

все сериалы на PB.wtf

RePack

FAR CRY 5

Anonymous, доброе утро, мы катастрофически не успеваем собрать деньги на оплату серверов, помогите нам пожалуйста 5,10,15р., для нас важна любая помощь . В качестве благодарности мы отключим Вам всю рекламу на сайте (укажите свой ник в строку Ваше имя)!

×
  
Magnet ссылка

Армия воров / Army of Thieves (Маттиас Швайгхефер) [2021, Боевик, триллер, криминал, WEB-DLRip-AVC] DUB [Netflix] от ExKinoRay pb.wtf

Армия воров через торрент pb.wtf

Раздают: 10 [ 48 KB/s ]
Размер: 2.85 GB | Добавлен: 28 д. назад | Торрент скачан:339 раз
Смотреть онлайн Армия воров | Скачать    Ребята, помогите собрать деньги на оплату серверов!!!

29-10-2021 20:57 Армия воров Скачать торрент  


Армия воров / Army of Thieves
Информация о фильме:
Название: Армия воров
Оригинальное название: Army of Thieves
Год выхода: 2021
Жанр: Боевик, триллер, криминал
Режиссер: Маттиас Швайгхефер

В ролях: Маттиас Швайгхефер, Натали Эммануэль, Руби О. Фи, Стюарт Мартин, Гуз Кхан, Джонатан Коэн, Ноэмиэ Накаи, Трент Гарретт, Джим Хай, Джон Бубняк

Описание: Приквел фильма «Армия мертвецов», рассказывающий историю немецкого взломщика сейфов Людвига Дитера, который возглавляет армию воров, специализирующихся на самых неприступных сейфах мира. Дитер и его команда планируют грандиозное ограбление в то время, когда в мире начинается зомби-апокалипсис.



Страна: Германия, США
Студия: Film United, Pantaleon Films, The Stone Quarry
Продолжительность: 02:09:34
Перевод: Дублированный - Netflix



Информация о файле:
Кодек: AVC
Формат: MKV
Качество: WEB-DLRip-AVC
Видео: MPEG-4 AVC, 1024x512, 24.000 fps, 1800 kbps
Аудио RU: AC3, 6 ch, 48 kHz, 448 kbps
Аудио EN: AC3, 6 ch, 48 kHz, 448 kbps
Аудио UKR: AC3, 6 ch, 48 kHz, 448 kbps
Субтитры: Русские (Forced, full), украинские (Forced, Full), английские

x264 info: frame I:2024 Avg QP:12.56 size: 60952
x264 info: frame P:45314 Avg QP:16.62 size: 19971
x264 info: frame B:139253 Avg QP:19.15 size: 5170
x264 info: consecutive B-frames: 4.3% 4.5% 13.3% 14.2% 11.9% 48.2% 1.7% 0.3% 0.3% 0.3% 0.9%
General
Unique ID : 172863025561917463974419615514455884225 (0x820C352D2F2C919F9A44447B303AC1C1)
Complete name : D:uTorrentРипы wolf1245Army of Thieves.2021.DUB.Netflix.WEB-DLRip-AVC.[wolf1245.ExKinoRay].mkv
Format : Matroska
Format version : Version 4
File size : 2.85 GiB
Duration : 2 h 9 min
Overall bit rate : 3 146 kb/s
Movie name : Army of Thieves.2021.DUB.Netflix.WEB-DLRip-AVC.[wolf1245.ExKinoRay]
Encoded date : UTC 2021-10-29 20:42:37
Writing application : mkvmerge v62.0.0 ('Apollo') 64-bit
Writing library : libebml v1.4.2 + libmatroska v1.6.4
Video
ID : 1
Format : AVC
Format/Info : Advanced Video Codec
Format profile : High@L4.1
Format settings : CABAC / 12 Ref Frames
Format settings, CABAC : Yes
Format settings, Reference frames : 12 frames
Codec ID : V_MPEG4/ISO/AVC
Duration : 2 h 9 min
Bit rate : 1 800 kb/s
Width : 1 024 pixels
Height : 512 pixels
Display aspect ratio : 2.000
Frame rate mode : Constant
Frame rate : 24.000 FPS
Color space : YUV
Chroma subsampling : 4:2:0
Bit depth : 8 bits
Scan type : Progressive
Bits/(Pixel*Frame) : 0.143
Stream size : 1.63 GiB (57%)
Title : -=[wolf1245.ExKinoRay]=-
Writing library : x264 core 161 r3020 d198931
Encoding settings : cabac=1 / ref=12 / deblock=1:-2:-2 / analyse=0x3:0x133 / me=umh / subme=10 / psy=1 / psy_rd=1.03:0.05 / mixed_ref=1 / me_range=32 / chroma_me=1 / trellis=2 / 8x8dct=1 / cqm=0 / deadzone=21,11 / fast_pskip=1 / chroma_qp_offset=-3 / threads=10 / lookahead_threads=2 / sliced_threads=0 / nr=0 / decimate=0 / interlaced=0 / bluray_compat=0 / constrained_intra=0 / bframes=10 / b_pyramid=2 / b_adapt=2 / b_bias=0 / direct=3 / weightb=1 / open_gop=0 / weightp=2 / keyint=240 / keyint_min=24 / scenecut=40 / intra_refresh=0 / rc_lookahead=60 / rc=2pass / mbtree=0 / bitrate=1800 / ratetol=1.0 / qcomp=0.60 / qpmin=0 / qpmax=69 / qpstep=4 / cplxblur=20.0 / qblur=0.5 / vbv_maxrate=50000 / vbv_bufsize=62500 / nal_hrd=none / filler=0 / ip_ratio=1.40 / pb_ratio=1.30 / aq=3:0.80
Language : English
Default : Yes
Forced : No
Audio #1
ID : 2
Format : AC-3
Format/Info : Audio Coding 3
Commercial name : Dolby Digital
Codec ID : A_AC3
Duration : 2 h 9 min
Bit rate mode : Constant
Bit rate : 448 kb/s
Channel(s) : 6 channels
Channel layout : L R C LFE Ls Rs
Sampling rate : 48.0 kHz
Frame rate : 31.250 FPS (1536 SPF)
Compression mode : Lossy
Stream size : 415 MiB (14%)
Title : DUB | Netflix
Language : Russian
Service kind : Complete Main
Default : Yes
Forced : No
Audio #2
ID : 3
Format : AC-3
Format/Info : Audio Coding 3
Commercial name : Dolby Digital
Codec ID : A_AC3
Duration : 2 h 9 min
Bit rate mode : Constant
Bit rate : 448 kb/s
Channel(s) : 6 channels
Channel layout : L R C LFE Ls Rs
Sampling rate : 48.0 kHz
Frame rate : 31.250 FPS (1536 SPF)
Compression mode : Lossy
Stream size : 415 MiB (14%)
Title : DUB | Netflix
Language : Ukrainian
Service kind : Complete Main
Default : No
Forced : No
Audio #3
ID : 4
Format : AC-3
Format/Info : Audio Coding 3
Commercial name : Dolby Digital
Codec ID : A_AC3
Duration : 2 h 9 min
Bit rate mode : Constant
Bit rate : 448 kb/s
Channel(s) : 6 channels
Channel layout : L R C LFE Ls Rs
Sampling rate : 48.0 kHz
Frame rate : 31.250 FPS (1536 SPF)
Compression mode : Lossy
Stream size : 415 MiB (14%)
Title : Original
Language : English
Service kind : Complete Main
Default : No
Forced : No
Text #1
ID : 5
Format : UTF-8
Codec ID : S_TEXT/UTF8
Codec ID/Info : UTF-8 Plain Text
Duration : 2 h 7 min
Bit rate : 5 b/s
Count of elements : 131
Stream size : 4.77 KiB (0%)
Title : Forced
Language : Russian
Default : Yes
Forced : Yes
Text #2
ID : 6
Format : UTF-8
Codec ID : S_TEXT/UTF8
Codec ID/Info : UTF-8 Plain Text
Duration : 2 h 7 min
Bit rate : 75 b/s
Count of elements : 1514
Stream size : 70.8 KiB (0%)
Title : Full
Language : Russian
Default : No
Forced : No
Text #3
ID : 7
Format : UTF-8
Codec ID : S_TEXT/UTF8
Codec ID/Info : UTF-8 Plain Text
Duration : 2 h 0 min
Bit rate : 4 b/s
Count of elements : 117
Stream size : 4.37 KiB (0%)
Title : Forced
Language : Ukrainian
Default : No
Forced : No
Text #4
ID : 8
Format : UTF-8
Codec ID : S_TEXT/UTF8
Codec ID/Info : UTF-8 Plain Text
Duration : 2 h 2 min
Bit rate : 79 b/s
Count of elements : 1520
Stream size : 71.2 KiB (0%)
Title : Full
Language : Ukrainian
Default : No
Forced : No
Text #5
ID : 9
Format : UTF-8
Codec ID : S_TEXT/UTF8
Codec ID/Info : UTF-8 Plain Text
Duration : 1 h 49 min
Bit rate : 4 b/s
Count of elements : 150
Stream size : 3.84 KiB (0%)
Title : Forced
Language : English
Default : No
Forced : No
Text #6
ID : 10
Format : UTF-8
Codec ID : S_TEXT/UTF8
Codec ID/Info : UTF-8 Plain Text
Duration : 2 h 2 min
Bit rate : 52 b/s
Count of elements : 1505
Stream size : 47.4 KiB (0%)
Title : Full
Language : English
Default : No
Forced : No
Text #7
ID : 11
Format : UTF-8
Codec ID : S_TEXT/UTF8
Codec ID/Info : UTF-8 Plain Text
Duration : 2 h 2 min
Bit rate : 61 b/s
Count of elements : 1761
Stream size : 55.4 KiB (0%)
Title : SDH
Language : English
Default : No
Forced : No
Релиз от:
Автор релиза:
pb.wtf



Скачать Армия воров через торрент https://i116.fastpic.org/big/2021/1029/b3/d75e3296ab126b40667eb58c54dae0b3.jpg Скачать, смотреть онлайн Армия воров бесплантно в хорошем качестве Описание: Приквел фильма «Армия мертвецов», рассказывающий историю немецкого взломщика сейфов Людвига Дитера, который возглавляет армию ... 10 10 11
Info! Золотая раздача, скачанное не засчитывается.
Торрент: Зарегистрирован [2021-10-29 20:57] · скачан: 339 раз
Статус: √ проверено
Размер: 2.85 GB
Как cкачать? Как скачать Армия воров через торрент | UTorrent

28-11-2019 20:33  

Отключить всю рекламу на сайте

    Дорогой пользователь! Огромная просьба, поблагодарите релизера, оцените раздачу и оставьте свои комментарий, если Вы скачали Армия воров через торрент бесплатно!
    Комментировать посты могут только пользователи прошедшие не сложную регистрацию
    Показать сообщения:    

    Армия воров через торрент
    Скачать бесплатно Армия воров
    Армия воров скачать торрент
    Армия воров смотреть онлайн
    Cкачать фильм Армия воров бесплатно
    Армия воров скачать торрент в хорошем качестве
    Армия воров смотреть онлайн бесплатно в хорошем качестве


    Вы не можете начинать темы
    Вы не можете отвечать на сообщения
    Вы не можете редактировать свои сообщения
    Вы не можете удалять свои сообщения
    Вы не можете голосовать в опросах
    Вы не можете прикреплять файлы к сообщениям
    Вы можете скачивать файлы